Salesman (1969) [The Criterion Collection]

Salesman (1969) [The Criterion Collection]

Salesman (1969)
BRRip | AVI | 1 h 31 min | 1.15 GB | 534x400 | XviD@1595 kb/s
English MP3@192 kb/s, 1 ch
BDRip 720p | MKV | 1 h 31 min | 7.00 GB | 960x720 | AVC@10.2 Mb/s
English FLAC@636 kb/s, 1 ch | English AAC@78.0 kb/s, 1 ch (Commentary)
Subs: English
Genre: Documentary | Drama

Four relentless door-to-door salesmen deal with constant rejection, homesickness and inevitable burnout as they go across the country selling very expensive bibles to low-income Catholic families.



General
Salesman.1969.BRRip.XviD.MP3-XVID.avi
Format : AVI
Format/Info : Audio Video Interleave
Format profile : OpenDML
File size : 1.15 GB
Duration : 1 h 31 min
Overall bit rate : 1803 kb/s
Writing application : Lavf58.20.100

Video
ID : 0
Format : MPEG-4 Visual
Format profile : Simple@L5
Format settings, BVOP : No
Format settings, QPel : No
Format settings, GMC : No warppoints
Format settings, Matrix : Default (H.263)
Codec ID : XVID
Codec ID/Hint : XviD
Duration : 1 h 31 min
Bit rate : 1595 kb/s
Width : 534 pixels
Height : 400 pixels
Display aspect ratio : 4:3
Original display aspect ratio : 4:3
Frame rate : 23.976 (24000/1001) FPS
Color space : YUV
Chroma subsampling : 4:2:0
Bit depth : 8 bits
Scan type : Progressive
Compression mode : Lossy
Bits/(Pixel*Frame) : 0.311
Stream size : 1.02 GB (88%)
Writing library : Lavc58.35.100

Audio
ID : 1
Format : MPEG Audio
Format version : Version 1
Format profile : Layer 3
Codec ID : 55
Codec ID/Hint : MP3
Duration : 1 h 31 min
Bit rate mode : Constant
Bit rate : 192 kb/s
Channel(s) : 1 channel
Sampling rate : 48.0 kHz
Compression mode : Lossy
Stream size : 125 MB (11%)
Alignment : Aligned on interleaves
Interleave, duration : 24 ms (0.58 video frame)
Interleave, preload duration : 24 ms


General
Salesman.1969.720p.BluRay.x264-NODLABS.mkv
Format : Matroska
Format version : Version 4 / Version 2
File size : 7.00 GB
Duration : 1 h 31 min
Overall bit rate mode : Variable
Overall bit rate : 11.0 Mb/s
Writing application : mkvmerge v44.0.0 ('Domino') 64-bit
Writing library : libebml v1.3.10 + libmatroska v1.5.2

Video
ID : 1
Format : AVC
Format/Info : Advanced Video Codec
Format profile : High@L4.1
Format settings, CABAC : Yes
Format settings, ReFrames : 8 frames
Codec ID : V_MPEG4/ISO/AVC
Duration : 1 h 31 min
Bit rate : 10.2 Mb/s
Width : 960 pixels
Height : 720 pixels
Display aspect ratio : 4:3
Frame rate mode : Constant
Frame rate : 23.976 (24000/1001) FPS
Color space : YUV
Chroma subsampling : 4:2:0
Bit depth : 8 bits
Scan type : Progressive
Bits/(Pixel*Frame) : 0.618
Stream size : 6.54 GB (93%)
Writing library : x264 core 160 r3000 33f9e14
Encoding settings : cabac=1 / ref=8 / deblock=1:-3:-3 / analyse=0x3:0x133 / me=umh / subme=9 / psy=1 / psy_rd=1.15:0.00 / mixed_ref=1 / me_range=24 / chroma_me=1 / trellis=2 / 8x8dct=1 / cqm=0 / deadzone=21,11 / fast_pskip=0 / chroma_qp_offset=-2 / threads=22 / lookahead_threads=1 / sliced_threads=0 / nr=0 / decimate=0 / interlaced=0 / bluray_compat=0 / constrained_intra=0 / bframes=3 / b_pyramid=2 / b_adapt=2 / b_bias=0 / direct=3 / weightb=1 / open_gop=0 / weightp=2 / keyint=250 / keyint_min=23 / scenecut=40 / intra_refresh=0 / rc=crf / mbtree=0 / crf=20.3 / qcomp=0.60 / qpmin=0 / qpmax=69 / qpstep=4 / ip_ratio=1.40 / pb_ratio=1.30 / aq=3:0.65
Default : Yes
Forced : No
Color range : Limited
Matrix coefficients : BT.709

Audio #1
ID : 2
Format : FLAC
Format/Info : Free Lossless Audio Codec
Codec ID : A_FLAC
Duration : 1 h 31 min
Bit rate mode : Variable
Bit rate : 636 kb/s
Channel(s) : 1 channel
Channel positions : Front: C
Sampling rate : 48.0 kHz
Frame rate : 11.719 FPS (4096 spf)
Bit depth : 24 bits
Stream size : 415 MB (6%)
Title : Flac 1.0
Writing library : libFLAC 1.2.1 (UTC 2007-09-17)
Language : English
Default : Yes
Forced : No

Audio #2
ID : 6
Format : AAC
Format/Info : Advanced Audio Codec
Format profile : LC
Codec ID : A_AAC
Duration : 1 h 31 min
Bit rate : 78.0 kb/s
Channel(s) : 1 channel
Channel positions : Front: C
Sampling rate : 48.0 kHz
Frame rate : 46.875 FPS (1024 spf)
Compression mode : Lossy
Delay relative to video : 9 ms
Stream size : 50.9 MB (1%)
Title : Commentary featuring co-directors Albert Maysles and Charlotte Zwerin
Language : English
Default : No
Forced : No

Text #1
ID : 3
Format : UTF-8
Codec ID : S_TEXT/UTF8
Codec ID/Info : UTF-8 Plain Text
Duration : 1 h 29 min
Bit rate : 100 b/s
Count of elements : 1510
Stream size : 65.8 KiB (0%)
Title : Stripped SRT
Language : English
Default : No
Forced : No

Text #2
ID : 4
Format : UTF-8
Codec ID : S_TEXT/UTF8
Codec ID/Info : UTF-8 Plain Text
Duration : 1 h 29 min
Bit rate : 105 b/s
Count of elements : 1577
Stream size : 69.0 KiB (0%)
Title : SDH SRT
Language : English
Default : No
Forced : No

Text #3
ID : 5
Format : PGS
Muxing mode : zlib
Codec ID : S_HDMV/PGS
Codec ID/Info : Picture based subtitle format used on BDs/HD-DVDs
Duration : 1 h 29 min
Bit rate : 86.3 kb/s
Count of elements : 3155
Stream size : 55.2 MB (1%)
Title : English SDH
Language : English
Default : No
Forced : No

Menu
00:00:00.000 : en:Chapter 01
00:05:30.038 : en:Chapter 02
00:07:29.157 : en:Chapter 03
00:14:52.642 : en:Chapter 04
00:18:25.229 : en:Chapter 05
00:27:32.901 : en:Chapter 06
00:32:42.419 : en:Chapter 07
00:38:26.763 : en:Chapter 08
00:44:13.401 : en:Chapter 09
00:49:32.678 : en:Chapter 10
00:50:49.838 : en:Chapter 11
00:53:33.794 : en:Chapter 12
00:54:33.854 : en:Chapter 13
00:58:24.793 : en:Chapter 14
01:02:42.592 : en:Chapter 15
01:04:07.635 : en:Chapter 16
01:06:38.912 : en:Chapter 17
01:15:42.329 : en:Chapter 18
01:18:03.804 : en:Chapter 19
01:25:44.306 : en:Chapter 20
01:28:44.653 : en:Chapter 21



BRRip Screenshots

Salesman (1969) [The Criterion Collection]

Salesman (1969) [The Criterion Collection]

Salesman (1969) [The Criterion Collection]


BDRip 720p Screenshots

Salesman (1969) [The Criterion Collection]

Salesman (1969) [The Criterion Collection]

Salesman (1969) [The Criterion Collection]


Come Visit My Blog (•‿•)