Star Trek IV: The Voyage Home / Звездный путь IV: Дорога домой (1986) [ReUp]

Star Trek IV: The Voyage Home / Звездный путь IV: Дорога домой (1986) [ReUp]

Star Trek IV: The Voyage Home / Звездный путь IV: Дорога домой (1986)
BDRip | MKV | AVC 1280x544, ~ 4.0 Mbps | 1hr 58mn | 5.29 GB
English: AC3, 6 ch, 640 kbps; German \ French \ Italian \ English(Commentary): AC3, 2 ch, 224 kbps; Russian: AC3, 2 ch, 192 kbps
Subtitles: English, Russian
Genre: Adventure | Comedy | Sci-Fi
IMDB Rating: 7.3/10 (47.861 votes)


Subtitles in other languages: subtitleseeker.com


Director: Leonard Nimoy
Writers: Gene Roddenberry, Leonard Nimoy
Stars: William Shatner, Leonard Nimoy, DeForest Kelley

James Kirk who after rescuing Mr. Spock and bringing him to Vulcan where he is fully restored, is now the most hated man in the universe, because he disobeyed his superiors and killed a Klingon crew and took their ship. After three months on Vulcan, Kirk decides to return to Earth to face the consequences of his actions along with his crew who aided him. Also accompanying them is Mr. Spock, who is still trying to understand his human side. What they don't know is that an alien probe approaches Earth and is emitting a signal that nullifies all power systems. And it is now vaporizing the planet's oceans covering the planet in a cloud that covers the earth cutting them off from the sun - the planet's main source of energy. The President of the Federation sends a transmission telling everyone about what is happening and to stay away from earth. Kirk upon hearing it, checks out the probe's transmission and Spock postulates that the alien is not hostile merely unaware that it's …


Название: Звездный путь IV: Дорога домой
Оригинальное название: Star Trek IV: The Voyage Home
Год выпуска: 1986
Жанр: Фантастика, приключения
Выпущено: США
Режиссер: Леонард Нимой
В ролях: Уильям Шетнер, Леонард Нимой, ДеФорест Келли

О фильме: Возвращаясь домой с Вулкана на экспроприированном клингонском космическом корабле, Керк и его команда заранее готовятся к худшему. Хотя долг чести выполнен, и Спок снова с нами живой и здоровый, у команды нет более причин радоваться, особенно когда они начинают вспоминать о попутно содеянных проступках.
Неподчинение приказу, угнанный, а затем и самоликвидированный «Энтерпрайз», саботированный «Эксцельсиор» — все это заставляет их строить отнюдь не радужные предположения относительно того, чем их встретит Земля.
Но реальность оказывается куда мрачнее — к Земле приблизился огромный космический корабль неизвестной конструкции, транслирующий на планету запросы на языке китов, к 23-му веку окончательно вымерших. Странный корабль имеет свойство воздействовать на погоду, которая устраивает на Земле сплошные ливни, грозы, ураганы и смерчи. Анализ ситуации позволяет предположить, что если благодаря какому-то чуду на Земле снова появятся киты, то это стабилизирует ситуацию и разрешит надвигающийся конфликт.
И как вы думаете, кто способен сотворить чудо? Естественно, капитан Керк и его команда! Они готовы отправиться в прошлое для того, чтобы найти китов и доставить их в будущее ради спасения всей планеты.
Их путешествие начинается…

Русский перевод: Многоголосый закадровый, SDI Media



General
Unique ID : 235006652707793746905144780190507372533 (0xB0CCA28C9BC578B1AC48AB59E1788FF5)
Complete name : D:\ST4.TheVoyageHome.7p.All1.mkv
Format : Matroska
Format version : Version 4 / Version 2
File size : 5.29 GiB
Duration : 1h 58mn
Overall bit rate : 6 372 Kbps
Movie name : Avaxhome.cc
Encoded date : UTC 2014-02-17 05:25:12
Writing application : mkvmerge v6.3.0 ('You can't stop me!') built on Jun 28 2013 20:09:41
Writing library : libebml v1.3.0 + libmatroska v1.4.0

Video
ID : 1
Format : AVC
Format/Info : Advanced Video Codec
Format profile : High@L4.0
Format settings, CABAC : Yes
Format settings, ReFrames : 9 frames
Codec ID : V_MPEG4/ISO/AVC
Duration : 1h 58mn
Bit rate : 4 000 Kbps
Width : 1 280 pixels
Height : 544 pixels
Display aspect ratio : 2.35:1
Frame rate mode : Constant
Frame rate : 23.976 fps
Color space : YUV
Chroma subsampling : 4:2:0
Bit depth : 8 bits
Scan type : Progressive
Bits/(Pixel*Frame) : 0.240
Stream size : 3.22 GiB (61%)
Writing library : x264 core 130 r2273 b3065e6
Encoding settings : cabac=1 / ref=9 / deblock=1:-1:-1 / analyse=0x3:0x133 / me=umh / subme=11 / psy=1 / psy_rd=1.00:0.00 / mixed_ref=1 / me_range=32 / chroma_me=1 / trellis=2 / 8x8dct=1 / cqm=0 / deadzone=21,11 / fast_pskip=0 / chroma_qp_offset=-2 / threads=6 / lookahead_threads=1 / sliced_threads=0 / nr=0 / decimate=1 / interlaced=0 / bluray_compat=0 / constrained_intra=0 / bframes=8 / b_pyramid=2 / b_adapt=2 / b_bias=0 / direct=3 / weightb=1 / open_gop=0 / weightp=2 / keyint=240 / keyint_min=23 / scenecut=40 / intra_refresh=0 / rc_lookahead=60 / rc=2pass / mbtree=1 / bitrate=4000 / ratetol=1.0 / qcomp=0.70 / qpmin=0 / qpmax=69 / qpstep=4 / cplxblur=20.0 / qblur=0.5 / ip_ratio=1.40 / aq=1:1.00
Language : English
Default : Yes
Forced : No

Audio #1
ID : 2
Format : AC-3
Format/Info : Audio Coding 3
Mode extension : CM (complete main)
Format settings, Endianness : Big
Codec ID : A_AC3
Duration : 1h 58mn
Bit rate mode : Constant
Bit rate : 640 Kbps
Channel(s) : 6 channels
Channel positions : Front: L C R, Side: L R, LFE
Sampling rate : 48.0 KHz
Bit depth : 16 bits
Compression mode : Lossy
Stream size : 544 MiB (10%)
Language : English
Default : Yes
Forced : No

Audio #2
ID : 3
Format : AC-3
Format/Info : Audio Coding 3
Format profile : Dolby Digital
Mode extension : CM (complete main)
Format settings, Endianness : Big
Codec ID : A_AC3
Duration : 1h 58mn
Bit rate mode : Constant
Bit rate : 192 Kbps
Channel(s) : 2 channels
Channel positions : Front: L R
Sampling rate : 48.0 KHz
Bit depth : 16 bits
Compression mode : Lossy
Stream size : 163 MiB (3%)
Title : SDI Media AC3 2.0 192 Kbps
Language : Russian
Default : No
Forced : No

Audio #3
ID : 6
Format : AC-3
Format/Info : Audio Coding 3
Format profile : Dolby Digital
Mode extension : CM (complete main)
Format settings, Endianness : Big
Codec ID : A_AC3
Duration : 1h 58mn
Bit rate mode : Constant
Bit rate : 224 Kbps
Channel(s) : 2 channels
Channel positions : Front: L R
Sampling rate : 48.0 KHz
Bit depth : 16 bits
Compression mode : Lossy
Stream size : 190 MiB (4%)
Language : French
Default : No
Forced : No

Audio #4
ID : 7
Format : AC-3
Format/Info : Audio Coding 3
Format profile : Dolby Digital
Mode extension : CM (complete main)
Format settings, Endianness : Big
Codec ID : A_AC3
Duration : 1h 58mn
Bit rate mode : Constant
Bit rate : 224 Kbps
Channel(s) : 2 channels
Channel positions : Front: L R
Sampling rate : 48.0 KHz
Bit depth : 16 bits
Compression mode : Lossy
Stream size : 190 MiB (4%)
Language : German
Default : No
Forced : No

Audio #5
ID : 8
Format : AC-3
Format/Info : Audio Coding 3
Mode extension : CM (complete main)
Format settings, Endianness : Big
Codec ID : A_AC3
Duration : 1h 58mn
Bit rate mode : Constant
Bit rate : 640 Kbps
Channel(s) : 6 channels
Channel positions : Front: L C R, Side: L R, LFE
Sampling rate : 48.0 KHz
Bit depth : 16 bits
Compression mode : Lossy
Stream size : 544 MiB (10%)
Language : Italian
Default : No
Forced : No

Audio #6
ID : 9
Format : AC-3
Format/Info : Audio Coding 3
Mode extension : CM (complete main)
Format settings, Endianness : Big
Codec ID : A_AC3
Duration : 1h 58mn
Bit rate mode : Constant
Bit rate : 224 Kbps
Channel(s) : 2 channels
Channel positions : Front: L R
Sampling rate : 48.0 KHz
Bit depth : 16 bits
Compression mode : Lossy
Stream size : 190 MiB (4%)
Title : Commentary
Language : English
Default : No
Forced : No

Audio #7
ID : 10
Format : AC-3
Format/Info : Audio Coding 3
Mode extension : CM (complete main)
Format settings, Endianness : Big
Codec ID : A_AC3
Duration : 1h 58mn
Bit rate mode : Constant
Bit rate : 224 Kbps
Channel(s) : 2 channels
Channel positions : Front: L R
Sampling rate : 48.0 KHz
Bit depth : 16 bits
Compression mode : Lossy
Stream size : 190 MiB (4%)
Title : Commentary
Language : English
Default : No
Forced : No

Text #1
ID : 4
Format : UTF-8
Codec ID : S_TEXT/UTF8
Codec ID/Info : UTF-8 Plain Text
Language : English
Default : No
Forced : No

Text #2
ID : 5
Format : UTF-8
Codec ID : S_TEXT/UTF8
Codec ID/Info : UTF-8 Plain Text
Language : Russian
Default : No
Forced : No

Menu
00:00:00.000 : en:00:00:00.000
00:03:08.938 : en:00:03:08.938
00:07:02.171 : en:00:07:02.171
00:13:36.023 : en:00:13:36.023
00:16:43.168 : en:00:16:43.168
00:27:29.939 : en:00:27:29.939
00:36:06.747 : en:00:36:06.747
00:45:25.389 : en:00:45:25.389
00:51:33.423 : en:00:51:33.423
00:58:01.769 : en:00:58:01.769
01:02:57.648 : en:01:02:57.648
01:12:17.666 : en:01:12:17.666
01:17:38.654 : en:01:17:38.654
01:22:44.542 : en:01:22:44.542
01:28:29.304 : en:01:28:29.304
01:37:17.081 : en:01:37:17.081
01:48:14.279 : en:01:48:14.279
01:55:00.727 : en:01:55:00.727



Screenshots (click to enlarge to original size):

Star Trek IV: The Voyage Home / Звездный путь IV: Дорога домой (1986) [ReUp]

Star Trek IV: The Voyage Home / Звездный путь IV: Дорога домой (1986) [ReUp]

Star Trek IV: The Voyage Home / Звездный путь IV: Дорога домой (1986) [ReUp]

Star Trek IV: The Voyage Home / Звездный путь IV: Дорога домой (1986) [ReUp]

Star Trek IV: The Voyage Home / Звездный путь IV: Дорога домой (1986) [ReUp]




–––––––––––––––––––––––––––––––––––––––-
>>> "Sci-Fi" <<< OR >>> "Star Trek" <<<
–––––––––––––––––––––––––––––––––––––––-
>>> Visit Blog RSU75 Here <<<
–––––––––––––––––––––––––––––––––––––––-