Star Trek I: The Motion Picture / Звездный путь I: Фильм (1979) [ReUp]

Star Trek I: The Motion Picture / Звездный путь I: Фильм (1979) [ReUp]

Star Trek I: The Motion Picture / Звездный путь I: Фильм (1979)
BDRip | MKV | AVC 1280x544, ~ 4.0 Mbps | 2hr 12mn | 5.49 GB
English: AC3, 6 ch, 640 kbps; German \ French \ Italian \ Spanish \ English(Commentary): AC3, 2 ch, 224 kbps; Russian: AC3, 2 ch, 192 kbps
Subtitles: English, Russian
Genre: Adventure | Mystery | Sci-Fi
IMDB Rating: 6.3/10 (48.668 votes)


Subtitles in other languages: subtitleseeker.com


Director: Robert Wise
Writers: Gene Roddenberry, Alan Dean Foster
Stars: William Shatner, Leonard Nimoy, DeForest Kelley

An alien phenomenon of unprecedented size and power is approaching Earth, destroying everything in its path. The only starship in range is the USS Enterprise–still in drydock after a major overhaul. As Captain Willard Decker readies his ship and his crew to face this menace, Admiral James T. Kirk arrives with orders to take command of the Enterprise and intercept the intruder. But it has been three years since Kirk last commanded the Enterprise on its historic five year mission… is he up to the task of saving the Earth?


Название: Звездный путь I: Фильм
Оригинальное название: Star Trek I: The Motion Picture
Год выпуска: 1979
Жанр: Фантастика, приключения
Выпущено: США
Режиссер: Роберт Уайз
В ролях: Уильям Шетнер, Леонард Нимой, ДеФорест Келли, Джеймс Дуэн, Джордж Такей, Маджел Бэррет, Уолтер Кениг, Нишелль Николс, Персис Хамбатта, Стивен Коллинз

О фильме: Из глубин космоса, через Клингонский сектор к Земле приближается неопознанный объект просто гигантских размеров с неясными, но, возможно, враждебными намерениями, называющий себя «Виджер»; и Энтерпрайз оказывается единственным кораблем, способным успеть вовремя добраться до этого объекта для его исследования и ликвидации потенциальной опасности для Земли. Это важнейшее задание поручается адмиралу Звездного Флота Джеймсу Т. Кирку, который получает в свое командование корабль USS Enterprise NCC1701 и всю свою старую команду. Итак, их путешествие начинается…

Русский перевод: Многоголосый закадровый, СТС




General
Unique ID : 204525570906997666416590713708815334959 (0x99DE31301AC806958D77BC87CDA43E2F)
Complete name : D:\StarTrek1.TheMP.All1.mkv
Format : Matroska
Format version : Version 4 / Version 2
File size : 5.49 GiB
Duration : 2h 12mn
Overall bit rate : 5 956 Kbps
Movie name : avaxhome
Encoded date : UTC 2014-01-16 03:35:43
Writing application : mkvmerge v6.3.0 ('You can't stop me!') built on Jun 28 2013 20:09:41
Writing library : libebml v1.3.0 + libmatroska v1.4.0

Video
ID : 1
Format : AVC
Format/Info : Advanced Video Codec
Format profile : High@L4.0
Format settings, CABAC : Yes
Format settings, ReFrames : 9 frames
Codec ID : V_MPEG4/ISO/AVC
Duration : 2h 12mn
Bit rate : 4 000 Kbps
Width : 1 280 pixels
Height : 544 pixels
Display aspect ratio : 2.35:1
Frame rate mode : Constant
Frame rate : 23.976 fps
Color space : YUV
Chroma subsampling : 4:2:0
Bit depth : 8 bits
Scan type : Progressive
Bits/(Pixel*Frame) : 0.240
Stream size : 3.58 GiB (65%)
Title : StarTrekI.TheMotionPicture.BDRip.720p
Writing library : x264 core 130 r2273 b3065e6
Encoding settings : cabac=1 / ref=9 / deblock=1:-1:-1 / analyse=0x3:0x133 / me=umh / subme=11 / psy=1 / psy_rd=1.00:0.00 / mixed_ref=1 / me_range=32 / chroma_me=1 / trellis=2 / 8x8dct=1 / cqm=0 / deadzone=21,11 / fast_pskip=0 / chroma_qp_offset=-2 / threads=6 / lookahead_threads=1 / sliced_threads=0 / nr=0 / decimate=1 / interlaced=0 / bluray_compat=0 / constrained_intra=0 / bframes=8 / b_pyramid=2 / b_adapt=2 / b_bias=0 / direct=3 / weightb=1 / open_gop=0 / weightp=2 / keyint=240 / keyint_min=23 / scenecut=40 / intra_refresh=0 / rc_lookahead=60 / rc=2pass / mbtree=1 / bitrate=4000 / ratetol=1.0 / qcomp=0.70 / qpmin=0 / qpmax=69 / qpstep=4 / cplxblur=20.0 / qblur=0.5 / ip_ratio=1.40 / aq=1:1.00
Language : English
Default : Yes
Forced : No

Audio #1
ID : 2
Format : AC-3
Format/Info : Audio Coding 3
Mode extension : CM (complete main)
Format settings, Endianness : Big
Codec ID : A_AC3
Duration : 2h 12mn
Bit rate mode : Constant
Bit rate : 640 Kbps
Channel(s) : 6 channels
Channel positions : Front: L C R, Side: L R, LFE
Sampling rate : 48.0 KHz
Bit depth : 16 bits
Compression mode : Lossy
Stream size : 604 MiB (11%)
Title : AC3 5.1 640 Kbps
Language : English
Default : Yes
Forced : No

Audio #2
ID : 5
Format : AC-3
Format/Info : Audio Coding 3
Format profile : Dolby Digital
Mode extension : CM (complete main)
Format settings, Endianness : Big
Codec ID : A_AC3
Duration : 2h 12mn
Bit rate mode : Constant
Bit rate : 224 Kbps
Channel(s) : 2 channels
Channel positions : Front: L R
Sampling rate : 48.0 KHz
Bit depth : 16 bits
Compression mode : Lossy
Stream size : 211 MiB (4%)
Language : German
Default : No
Forced : No

Audio #3
ID : 6
Format : AC-3
Format/Info : Audio Coding 3
Mode extension : CM (complete main)
Format settings, Endianness : Big
Codec ID : A_AC3
Duration : 2h 12mn
Bit rate mode : Constant
Bit rate : 224 Kbps
Channel(s) : 2 channels
Channel positions : Front: L R
Sampling rate : 48.0 KHz
Bit depth : 16 bits
Compression mode : Lossy
Stream size : 211 MiB (4%)
Language : Spanish
Default : No
Forced : No

Audio #4
ID : 7
Format : AC-3
Format/Info : Audio Coding 3
Format profile : Dolby Digital
Mode extension : CM (complete main)
Format settings, Endianness : Big
Codec ID : A_AC3
Duration : 2h 12mn
Bit rate mode : Constant
Bit rate : 224 Kbps
Channel(s) : 2 channels
Channel positions : Front: L R
Sampling rate : 48.0 KHz
Bit depth : 16 bits
Compression mode : Lossy
Stream size : 211 MiB (4%)
Language : French
Default : No
Forced : No

Audio #5
ID : 8
Format : AC-3
Format/Info : Audio Coding 3
Format profile : Dolby Digital
Mode extension : CM (complete main)
Format settings, Endianness : Big
Codec ID : A_AC3
Duration : 2h 12mn
Bit rate mode : Constant
Bit rate : 224 Kbps
Channel(s) : 2 channels
Channel positions : Front: L R
Sampling rate : 48.0 KHz
Bit depth : 16 bits
Compression mode : Lossy
Stream size : 211 MiB (4%)
Language : Italian
Default : No
Forced : No

Audio #6
ID : 9
Format : AC-3
Format/Info : Audio Coding 3
Mode extension : CM (complete main)
Format settings, Endianness : Big
Codec ID : A_AC3
Duration : 2h 12mn
Bit rate mode : Constant
Bit rate : 224 Kbps
Channel(s) : 2 channels
Channel positions : Front: L R
Sampling rate : 48.0 KHz
Bit depth : 16 bits
Compression mode : Lossy
Stream size : 211 MiB (4%)
Title : Commentary
Language : English
Default : No
Forced : No

Audio #7
ID : 10
Format : AC-3
Format/Info : Audio Coding 3
Format profile : Dolby Digital
Mode extension : CM (complete main)
Format settings, Endianness : Big
Codec ID : A_AC3
Duration : 2h 12mn
Bit rate mode : Constant
Bit rate : 192 Kbps
Channel(s) : 2 channels
Channel positions : Front: L R
Sampling rate : 48.0 KHz
Bit depth : 16 bits
Compression mode : Lossy
Stream size : 181 MiB (3%)
Title : AC3 2.0 @ 192 kbps - MVO, STS (VHS)
Language : Russian
Default : No
Forced : No

Text #1
ID : 3
Format : UTF-8
Codec ID : S_TEXT/UTF8
Codec ID/Info : UTF-8 Plain Text
Language : English
Default : No
Forced : No

Text #2
ID : 4
Format : UTF-8
Codec ID : S_TEXT/UTF8
Codec ID/Info : UTF-8 Plain Text
Language : Russian
Default : No
Forced : No

Menu
00:00:00.000 : en:Overature
00:01:41.518 : en:Main Title
00:08:50.905 : en:Klingon Battle
00:11:49.290 : en:Vulcan
00:20:46.203 : en:Starfleet Headquarters
00:25:12.969 : en:The New Enterprise
00:28:01.179 : en:Welcome Aboard
00:31:31.222 : en:Transporter Malfunction
00:38:02.822 : en:Mission Briefing
00:44:36.382 : en:The Navigator Ilia
00:48:07.759 : en:Friends Reunited
00:55:28.283 : en:Ready for Departure
01:01:15.380 : en:The Wormhole
01:12:20.627 : en:Decker Speaks Freely
01:17:28.852 : en:Spock's Arrival
01:21:55.201 : en:Warp Speed
01:27:21.319 : en:Red Alert
01:38:14.220 : en:The Intruder Communicates
01:46:18.205 : en:Entering the Cloud
01:51:56.918 : en:The Alien Vessel
02:08:36.250 : en:Plasma Probe



Screenshots (click to enlarge to original size):

Star Trek I: The Motion Picture / Звездный путь I: Фильм (1979) [ReUp]

Star Trek I: The Motion Picture / Звездный путь I: Фильм (1979) [ReUp]

Star Trek I: The Motion Picture / Звездный путь I: Фильм (1979) [ReUp]

Star Trek I: The Motion Picture / Звездный путь I: Фильм (1979) [ReUp]

Star Trek I: The Motion Picture / Звездный путь I: Фильм (1979) [ReUp]



–––––––––––––––––––––––––––––––––––––––-
>>> "Sci-Fi" <<< OR >>> "Star Trek" <<<
–––––––––––––––––––––––––––––––––––––––-
>>> Visit Blog RSU75 Here <<<
–––––––––––––––––––––––––––––––––––––––-