Rules for School (1947-1982)

Rules for School (1947-1982)

Rules for School (1947-1982)
DVD Video | 3hr 13mn | NTSC 4:3 | 720x480 | 7.57 Gb
DVDRip | MKV | AVC 720x480, ~ 1.7 Mbps | 3hr 13mn | 2.57 GB
English: AC3, 2 ch, 192 kbps | Subtitles: None
Genre: Documentary, Short, Drama


Film Distributor: Kino Lorber (KINO Classics)

Prior to the era of the open classroom, schoolhouses were places of order and discipline. Assisting in the behavioral conditioning necessary for a smoothly-operating classroom, educational filmmakers often focused their attention on proper school-going etiquette.
This collection of films samples some of the subtle (and not-so-subtle) messages that were communicated to multiple generations of American youth, on topics such as safety, vandalism, and overzealous school spirit.
The films also serve as a time capsule of sorts, offering a fascinating glimpse into the concerns of parents and teachers about the threat and consequences of nonconformist behavior.

Contents:

School Rules: How They Help Us
1953 Color 10 Min.

How Quiet Helps at School
1953 B&W 10 Min.

Manners in School
1958 B&W 11 Min.

Safe Living at School
1948 B&W 10 Min.

Take Your Choice
1962 Color 12 Min.

School Spirit and Sportsmanship
1953 B&W 10 Min.

Making the Most of School
1958 B&W 9 Min.

Rescue Man
1982 Color 14 Min.

Mike Makes His Mark
1955 Color 25 Min.

Noontime Nonsense
1955 B&W 13 Min.

Maintaining Classroom Discipline
1947 B&W 14 Min.

When Should Grown-Ups Stop Fights?
1955 B&W 14 Min.

Civil Defense in School
1959 B&W 23 Min.

Adult Guards for School Crossings
1960 B&W 6 Min.

Story-telling: Can You Tell It in Order?
1953 Color 10 Min.


Extras:
- Film Notes by Skip Elsheimer, A/V Geeks Founder




Title: RulesForSchool.1947.1982.D9
Size: 7.57 Gb ( 7 932 482,00 KBytes ) - DVD-9
Enabled regions: 1, 2, 3, 4, 5, 6, 7, 8

VTS_01 :
Play Length: 03:12:49+{00:10:03}+{00:10:29}+{00:11:02}+{00:09:59}+{00:12:37}+{00:10:06}+{00:09:17}+{00:13:49}+{00:24:58}+{00:12:43}+{00:14:02}+{00:13:50}+{00:23:02}+{00:06:13}+{00:10:30}
Video: NTSC 4:3 (720x480) VBR
Audio:
English (Dolby AC3, 2 ch)





General
Unique ID : 209556624332581069244912093324216667865 (0x9DA72345DB611CF486A248AB91608ED9)
Complete name : F:\RulesForSchool.1947.1982.Dr\RulesForSchool.1947.1982.Dr.mkv
Format : Matroska
Format version : Version 4 / Version 2
File size : 2.57 GiB
Duration : 3 h 13 min
Overall bit rate : 1 903 kb/s
Movie name : Release RSU75
Encoded date : UTC 2020-01-02 14:40:16
Writing application : mkvmerge v6.6.0 ('The Edge Of The In Between') built on Dec 1 2013 17:55:00
Writing library : libebml v1.3.0 + libmatroska v1.4.1

Video
ID : 1
Format : AVC
Format/Info : Advanced Video Codec
Format profile : High@L4.1
Format settings : CABAC / 4 Ref Frames
Format settings, CABAC : Yes
Format settings, ReFrames : 4 frames
Codec ID : V_MPEG4/ISO/AVC
Duration : 3 h 13 min
Bit rate : 1 700 kb/s
Width : 720 pixels
Height : 480 pixels
Display aspect ratio : 4:3
Frame rate mode : Constant
Frame rate : 25.000 FPS
Color space : YUV
Chroma subsampling : 4:2:0
Bit depth : 8 bits
Scan type : Progressive
Bits/(Pixel*Frame) : 0.197
Stream size : 2.26 GiB (88%)
Writing library : x264 core 148 r2643 5c65704
Encoding settings : cabac=1 / ref=4 / deblock=1:0:0 / analyse=0x3:0x113 / me=umh / subme=8 / psy=1 / psy_rd=1.00:0.00 / mixed_ref=1 / me_range=24 / chroma_me=1 / trellis=1 / 8x8dct=1 / cqm=0 / deadzone=21,11 / fast_pskip=1 / chroma_qp_offset=-2 / threads=3 / lookahead_threads=1 / sliced_threads=0 / nr=0 / decimate=1 / interlaced=0 / bluray_compat=0 / constrained_intra=0 / bframes=3 / b_pyramid=0 / b_adapt=2 / b_bias=0 / direct=3 / weightb=1 / open_gop=0 / weightp=2 / keyint=250 / keyint_min=25 / scenecut=40 / intra_refresh=0 / rc_lookahead=40 / rc=abr / mbtree=1 / bitrate=1700 / ratetol=1.0 / qcomp=0.60 / qpmin=10 / qpmax=51 / qpstep=4 / ip_ratio=1.41 / aq=1:1.00
Language : English
Default : Yes
Forced : No

Audio
ID : 2
Format : AC-3
Format/Info : Audio Coding 3
Commercial name : Dolby Digital
Codec ID : A_AC3
Duration : 3 h 13 min
Bit rate mode : Constant
Bit rate : 192 kb/s
Channel(s) : 2 channels
Channel layout : L R
Sampling rate : 48.0 kHz
Frame rate : 31.250 FPS (1536 SPF)
Bit depth : 16 bits
Compression mode : Lossy
Stream size : 265 MiB (10%)
Title : Stereo
Language : English
Service kind : Complete Main
Default : Yes
Forced : No

Menu
00:00:00.000 : en:Chapter 01
00:10:12.812 : en:Chapter 02
00:20:42.007 : en:Chapter 03
00:31:44.235 : en:Chapter 04
00:41:43.334 : en:Chapter 05
00:54:21.524 : en:Chapter 06
01:04:28.030 : en:Chapter 07
01:13:45.721 : en:Chapter 08
01:27:35.817 : en:Chapter 09
01:52:34.914 : en:Chapter 10
02:05:19.078 : en:Chapter 11
02:19:22.120 : en:Chapter 12
02:33:12.550 : en:Chapter 13
02:56:16.299 : en:Chapter 14
03:02:30.105 : en:Chapter 15




Screenshots DVD (click to enlarge to original size):

Rules for School (1947-1982)

Rules for School (1947-1982)

Rules for School (1947-1982)

Rules for School (1947-1982)

Rules for School (1947-1982)



Thanks to original uploader


Screenshots DVDRip (click to enlarge to original size):

Rules for School (1947-1982)






If you like this release please visit my blog
In it you will find "Kino Lorber" releases (DVD, DVDRip, Blu-Ray, BDRip)