Rosemary's Baby (1968)

Rosemary's Baby (1968)

Rosemary's Baby (1968)
BDRip | MKV | 1920x1040 | English | H264 @ 9643 kbps | AC-3 @ 640 kbps | 2 h 16 min | 9.84 GiB
Subtitles: English
Genre: Drama, Horror, Mystery

A young couple moves into an infamous New York apartment building to start a family. Things become frightening as Rosemary begins to suspect her unborn baby isn't safe around their strange neighbors.

4f73b323ec86412ca11abb41bf4eb720.mkv (9.8 GB)



General
Complete name : ./4f73b323ec86412ca11abb41bf4eb720.mkv
Format : Matroska
Format version : Version 2
File size : 9.84 GiB
Duration : 2 h 16 min
Overall bit rate : 10.3 Mb/s
Writing application : mkvmerge v4.1.1 ('Bouncin' Back') built on Jul 3 2010 22:54:08
Writing library : libebml v1.0.0 + libmatroska v1.0

Video
ID : 1
Format : AVC
Format/Info : Advanced Video Codec
Format profile : High@L4.1
Format settings : CABAC / 4 Ref Frames
Format settings, CABAC : Yes
Format settings, RefFrames : 4 frames
Codec ID : V_MPEG4/ISO/AVC
Duration : 2 h 16 min
Bit rate : 9 643 kb/s
Width : 1 920 pixels
Height : 1 040 pixels
Display aspect ratio : 1.85:1
Frame rate mode : Constant
Frame rate : 23.976 (24000/1001) FPS
Color space : YUV
Chroma subsampling : 4:2:0
Bit depth : 8 bits
Scan type : Progressive
Bits/(Pixel*Frame) : 0.201
Stream size : 9.03 GiB (92%)
Writing library : x264 core 128 r2216 198a7ea
Encoding settings : cabac=1 / ref=4 / deblock=1:0:0 / analyse=0x3:0x113 / me=umh / subme=8 / psy=1 / psy_rd=1.00:0.00 / mixed_ref=1 / me_range=16 / chroma_me=1 / trellis=1 / 8x8dct=1 / cqm=0 / deadzone=21,11 / fast_pskip=1 / chroma_qp_offset=-2 / threads=12 / lookahead_threads=2 / sliced_threads=0 / nr=0 / decimate=1 / interlaced=0 / bluray_compat=0 / constrained_intra=0 / bframes=3 / b_pyramid=2 / b_adapt=2 / b_bias=0 / direct=3 / weightb=1 / open_gop=0 / weightp=2 / keyint=240 / keyint_min=24 / scenecut=40 / intra_refresh=0 / rc_lookahead=50 / rc=2pass / mbtree=1 / bitrate=9643 / ratetol=1.0 / qcomp=0.60 / qpmin=0 / qpmax=69 / qpstep=4 / cplxblur=20.0 / qblur=0.5 / ip_ratio=1.40 / aq=1:1.00
Language : English
Default : Yes
Forced : No

Audio
ID : 2
Format : AC-3
Format/Info : Audio Coding 3
Format settings, Endianness : Big
Codec ID : A_AC3
Duration : 2 h 16 min
Bit rate mode : Constant
Bit rate : 640 kb/s
Channel(s) : 6 channels
Channel(s)_Original : 1 channel
Channel positions : Front: C
Sampling rate : 48.0 kHz
Frame rate : 31.250 FPS (1536 SPF)
Bit depth : 16 bits
Compression mode : Lossy
Stream size : 627 MiB (6%)
Language : English
Service kind : Complete Main
Default : Yes
Forced : No

Text
ID : 3
Format : UTF-8
Codec ID : S_TEXT/UTF8
Codec ID/Info : UTF-8 Plain Text
Language : English
Default : No
Forced : No

Menu
00:00:00.000 : en:00:00:00.000
00:02:40.410 : en:00:02:40.410
00:08:49.237 : en:00:08:49.237
00:16:08.426 : en:00:16:08.426
00:20:17.925 : en:00:20:17.925
00:30:35.208 : en:00:30:35.208
00:37:46.222 : en:00:37:46.222
00:48:40.417 : en:00:48:40.417
00:57:24.483 : en:00:57:24.483
01:08:15.258 : en:01:08:15.258
01:14:51.487 : en:01:14:51.487
01:23:23.248 : en:01:23:23.248
01:33:56.172 : en:01:33:56.172
01:36:01.714 : en:01:36:01.714
01:46:39.893 : en:01:46:39.893
01:53:40.313 : en:01:53:40.313
02:00:55.331 : en:02:00:55.331
02:05:23.433 : en:02:05:23.433





Rosemary's Baby (1968)


Rosemary's Baby (1968)


Rosemary's Baby (1968)


Rosemary's Baby (1968)


Rosemary's Baby (1968)