Roma (1972)

Roma (1972)

Roma (1972)
DVDRip | MKV | 1hr 53mn | AVC, ~1,8 Mbps | 716x458 | 2.05 GB
Italian \ German \ French \ Spanish: MP3, 2 ch, 192 Kbps
Subtitles: Spanish, Italian, English, German, French, Finnish, Swedish, Danish, Norwegian, Portoguese, Hungarian, Greek
Genre: Comedy, Drama
IMDB Rating: 7.4/10 (8.936 votes)


Director: Federico Fellini
Writers: Federico Fellini, Bernardino Zapponi
Stars: Britta Barnes, Peter Gonzales Falcon, Fiona Florence

A virtually plotless, gaudy, impressionistic portrait of Rome through the eyes of one of its most famous citizens. blending autobiography (a reconstruction of Fellini's own arrival in Rome during the Mussolini years; a trip to a brothel and a music-hall) with scenes from present-day Roman life (a massive traffic jam on the autostrada; a raucous journey through Rome after dark; following an archaeological team through the site of the Rome subways; an unforgettable ecclesiastical fashion show)




General
Unique ID : 189366714798858229038251056809834085092 (0x8E76B3E0E11A0A7094AE383CE8927AE4)
Complete name : L:\Roma.72.Dr.All1\Roma.72.Dr.All1.mkv
Format : Matroska
Format version : Version 4 / Version 2
File size : 2.05 GiB
Duration : 1 h 53 min
Overall bit rate : 2 590 kb/s
Movie name : Release RSU75
Encoded date : UTC 2017-01-19 03:21:55
Writing application : mkvmerge v6.6.0 ('The Edge Of The In Between') built on Dec 1 2013 17:55:00
Writing library : libebml v1.3.0 + libmatroska v1.4.1

Video
ID : 1
Format : AVC
Format/Info : Advanced Video Codec
Format profile : High@L3
Format settings, CABAC : Yes
Format settings, ReFrames : 3 frames
Codec ID : V_MPEG4/ISO/AVC
Duration : 1 h 53 min
Bit rate : 1 800 kb/s
Width : 716 pixels
Height : 458 pixels
Display aspect ratio : 5:3
Frame rate mode : Constant
Frame rate : 25.000 FPS
Color space : YUV
Chroma subsampling : 4:2:0
Bit depth : 8 bits
Scan type : Progressive
Bits/(Pixel*Frame) : 0.220
Stream size : 1.40 GiB (68%)
Writing library : x264 core 144 r2533 c8a773e
Encoding settings : cabac=1 / ref=3 / deblock=1:0:0 / analyse=0x3:0x113 / me=hex / subme=7 / psy=1 / psy_rd=1.00:0.00 / mixed_ref=1 / me_range=16 / chroma_me=1 / trellis=1 / 8x8dct=1 / cqm=0 / deadzone=21,11 / fast_pskip=1 / chroma_qp_offset=-2 / threads=3 / lookahead_threads=1 / sliced_threads=0 / nr=0 / decimate=1 / interlaced=0 / bluray_compat=0 / constrained_intra=0 / bframes=3 / b_pyramid=1 / b_adapt=1 / b_bias=0 / direct=1 / weightb=1 / open_gop=0 / weightp=2 / keyint=250 / keyint_min=25 / scenecut=40 / intra_refresh=0 / rc_lookahead=40 / rc=abr / mbtree=1 / bitrate=1800 / ratetol=1.0 / qcomp=0.60 / qpmin=10 / qpmax=51 / qpstep=4 / ip_ratio=1.41 / aq=1:1.00
Language : Italian
Default : Yes
Forced : No

Audio #1
ID : 2
Format : AC-3
Format/Info : Audio Coding 3
Mode extension : CM (complete main)
Format settings, Endianness : Big
Codec ID : A_AC3
Duration : 1 h 53 min
Bit rate mode : Constant
Bit rate : 192 kb/s
Channel(s) : 2 channels
Channel positions : Front: L R
Sampling rate : 48.0 kHz
Frame rate : 31.250 FPS (1536 spf)
Compression mode : Lossy
Delay relative to video : -80 ms
Stream size : 156 MiB (7%)
Language : Italian
Default : Yes
Forced : No

Audio #2
ID : 3
Format : AC-3
Format/Info : Audio Coding 3
Mode extension : CM (complete main)
Format settings, Endianness : Big
Codec ID : A_AC3
Duration : 1 h 53 min
Bit rate mode : Constant
Bit rate : 192 kb/s
Channel(s) : 2 channels
Channel positions : Front: L R
Sampling rate : 48.0 kHz
Frame rate : 31.250 FPS (1536 spf)
Compression mode : Lossy
Delay relative to video : -80 ms
Stream size : 156 MiB (7%)
Language : German
Default : No
Forced : No

Audio #3
ID : 4
Format : AC-3
Format/Info : Audio Coding 3
Mode extension : CM (complete main)
Format settings, Endianness : Big
Codec ID : A_AC3
Duration : 1 h 53 min
Bit rate mode : Constant
Bit rate : 192 kb/s
Channel(s) : 2 channels
Channel positions : Front: L R
Sampling rate : 48.0 kHz
Frame rate : 31.250 FPS (1536 spf)
Compression mode : Lossy
Delay relative to video : -80 ms
Stream size : 156 MiB (7%)
Language : French
Default : No
Forced : No

Audio #4
ID : 5
Format : AC-3
Format/Info : Audio Coding 3
Mode extension : CM (complete main)
Format settings, Endianness : Big
Codec ID : A_AC3
Duration : 1 h 53 min
Bit rate mode : Constant
Bit rate : 192 kb/s
Channel(s) : 2 channels
Channel positions : Front: L R
Sampling rate : 48.0 kHz
Frame rate : 31.250 FPS (1536 spf)
Compression mode : Lossy
Delay relative to video : -80 ms
Stream size : 156 MiB (7%)
Language : Spanish
Default : No
Forced : No

Text #1
ID : 6
Format : VobSub
Muxing mode : zlib
Codec ID : S_VOBSUB
Codec ID/Info : Picture based subtitle format used on DVDs
Language : English
Default : Yes
Forced : No

Text #2
ID : 7
Format : VobSub
Muxing mode : zlib
Codec ID : S_VOBSUB
Codec ID/Info : Picture based subtitle format used on DVDs
Language : German
Default : No
Forced : No

Text #3
ID : 8
Format : VobSub
Muxing mode : zlib
Codec ID : S_VOBSUB
Codec ID/Info : Picture based subtitle format used on DVDs
Language : French
Default : No
Forced : No

Text #4
ID : 9
Format : VobSub
Muxing mode : zlib
Codec ID : S_VOBSUB
Codec ID/Info : Picture based subtitle format used on DVDs
Language : Spanish
Default : No
Forced : No

Text #5
ID : 10
Format : VobSub
Muxing mode : zlib
Codec ID : S_VOBSUB
Codec ID/Info : Picture based subtitle format used on DVDs
Language : Finnish
Default : No
Forced : No

Text #6
ID : 11
Format : VobSub
Muxing mode : zlib
Codec ID : S_VOBSUB
Codec ID/Info : Picture based subtitle format used on DVDs
Language : Swedish
Default : No
Forced : No

Text #7
ID : 12
Format : VobSub
Muxing mode : zlib
Codec ID : S_VOBSUB
Codec ID/Info : Picture based subtitle format used on DVDs
Language : Norwegian
Default : No
Forced : No

Text #8
ID : 13
Format : VobSub
Muxing mode : zlib
Codec ID : S_VOBSUB
Codec ID/Info : Picture based subtitle format used on DVDs
Language : Danish
Default : No
Forced : No

Text #9
ID : 14
Format : VobSub
Muxing mode : zlib
Codec ID : S_VOBSUB
Codec ID/Info : Picture based subtitle format used on DVDs
Language : Portuguese
Default : No
Forced : No

Text #10
ID : 15
Format : VobSub
Muxing mode : zlib
Codec ID : S_VOBSUB
Codec ID/Info : Picture based subtitle format used on DVDs
Language : Hungarian
Default : No
Forced : No

Text #11
ID : 16
Format : VobSub
Muxing mode : zlib
Codec ID : S_VOBSUB
Codec ID/Info : Picture based subtitle format used on DVDs
Language : Greek
Default : No
Forced : No

Menu
00:00:00.000 : en:Chapter 01
00:01:04.000 : en:Chapter 02
00:06:20.280 : en:Chapter 03
00:11:06.600 : en:Chapter 04
00:21:24.520 : en:Chapter 05
00:30:24.360 : en:Chapter 06
00:39:03.920 : en:Chapter 07
00:42:19.080 : en:Chapter 08
00:58:51.480 : en:Chapter 09
01:01:57.480 : en:Chapter 10
01:13:51.360 : en:Chapter 11
01:20:25.840 : en:Chapter 12
01:26:23.560 : en:Chapter 13
01:32:07.680 : en:Chapter 14
01:41:32.480 : en:Chapter 15
01:49:13.960 : en:Chapter 16




Screenshots (click to enlarge to original size):

Roma (1972)

Roma (1972)

Roma (1972)

Roma (1972)

Roma (1972)



–––––––––––––––––––––––––––––––––––––––-
>>> Other "DVDRip" <<< OR >>> Another format "Roma (1972)" <<<OR >>> "Italian" <<<
–––––––––––––––––––––––––––––––––––––––-
>>> Visit Blog RSU75 Here <<<
–––––––––––––––––––––––––––––––––––––––-