Robowar (1988)

Robowar (1988)

Robowar (1988)
BDRip | MKV | 1920x1040 | Italian / English | H264 @ 12488 kbps | DTS @ 1509 kbps | 1 h 30 min | 9.83 GiB
Subtitles: English
Genre: Action, Horror, Science Fiction, War

A clone/mix of PREDATOR and ROBOCOP gone nuts jungle flick with an international cast, exotic locale and good electronic music.

Robowar.1988.1080p.BluRay.x264-CREEPSHOW-AsRequested=410a9423dea7ac2b9a02c4093725cdbcefcfcf2e.part1.rar (5.2 GB)
Robowar.1988.1080p.BluRay.x264-CREEPSHOW-AsRequested=410a9423dea7ac2b9a02c4093725cdbcefcfcf2e.part2.rar (4.8 GB)



General
Unique ID : 134672392563806529863884336616185970818 (0x6550F598193F4B67B7618E66FE5EC082)
Complete name : ./94bc9fe3603b4c458ee50c48607b5ec8.mkv
Format : Matroska
Format version : Version 2
File size : 9.83 GiB
Duration : 1 h 30 min
Overall bit rate : 15.5 Mb/s
Encoded date : UTC 2019-07-07 22:48:43
Writing application : mkvmerge v34.0.0 ('Sight and Seen') 64-bit
Writing library : libebml v1.3.7 + libmatroska v1.5.0

Video
ID : 1
Format : AVC
Format/Info : Advanced Video Codec
Format profile : High@L4.1
Format settings : CABAC / 4 Ref Frames
Format settings, CABAC : Yes
Format settings, RefFrames : 4 frames
Codec ID : V_MPEG4/ISO/AVC
Duration : 1 h 30 min
Bit rate : 12.5 Mb/s
Width : 1 920 pixels
Height : 1 040 pixels
Display aspect ratio : 1.85:1
Frame rate mode : Constant
Frame rate : 23.976 (24000/1001) FPS
Color space : YUV
Chroma subsampling : 4:2:0
Bit depth : 8 bits
Scan type : Progressive
Bits/(Pixel*Frame) : 0.261
Stream size : 7.92 GiB (81%)
Writing library : x264 core 157 r2969 d4099dd
Encoding settings : cabac=1 / ref=4 / deblock=1:-2:-2 / analyse=0x3:0x133 / me=umh / subme=9 / psy=1 / psy_rd=1.00:0.00 / mixed_ref=1 / me_range=16 / chroma_me=1 / trellis=2 / 8x8dct=1 / cqm=0 / deadzone=21,11 / fast_pskip=0 / chroma_qp_offset=-2 / threads=12 / lookahead_threads=1 / sliced_threads=0 / nr=0 / decimate=1 / interlaced=0 / bluray_compat=0 / constrained_intra=0 / bframes=3 / b_pyramid=2 / b_adapt=2 / b_bias=0 / direct=3 / weightb=1 / open_gop=0 / weightp=2 / keyint=240 / keyint_min=23 / scenecut=40 / intra_refresh=0 / rc_lookahead=50 / rc=2pass / mbtree=1 / bitrate=12488 / ratetol=1.0 / qcomp=0.60 / qpmin=0 / qpmax=69 / qpstep=4 / cplxblur=20.0 / qblur=0.5 / vbv_maxrate=62500 / vbv_bufsize=78125 / nal_hrd=none / filler=0 / ip_ratio=1.40 / aq=1:0.70
Default : Yes
Forced : No

Audio #1
ID : 2
Format : DTS
Format/Info : Digital Theater Systems
Mode : 16
Format settings, Endianness : Big
Codec ID : A_DTS
Duration : 1 h 30 min
Bit rate mode : Constant
Bit rate : 1 509 kb/s
Channel(s) : 2 channels
Channel positions : Front: L R
Sampling rate : 48.0 kHz
Frame rate : 93.750 FPS (512 SPF)
Bit depth : 24 bits
Compression mode : Lossy
Stream size : 979 MiB (10%)
Language : Italian
Default : Yes
Forced : No

Audio #2
ID : 3
Format : DTS
Format/Info : Digital Theater Systems
Mode : 16
Format settings, Endianness : Big
Codec ID : A_DTS
Duration : 1 h 30 min
Bit rate mode : Constant
Bit rate : 1 509 kb/s
Channel(s) : 2 channels
Channel positions : Front: L R
Sampling rate : 48.0 kHz
Frame rate : 93.750 FPS (512 SPF)
Bit depth : 24 bits
Compression mode : Lossy
Stream size : 979 MiB (10%)
Language : English
Default : No
Forced : No

Text
ID : 4
Format : UTF-8
Codec ID : S_TEXT/UTF8
Codec ID/Info : UTF-8 Plain Text
Duration : 1 h 30 min
Bit rate : 45 b/s
Count of elements : 1230
Stream size : 30.3 KiB (0%)
Language : English
Default : Yes
Forced : No

Menu
00:00:00.000 : en:Chapter 01
00:12:35.838 : en:Chapter 02
00:22:33.853 : en:Chapter 03
00:34:45.500 : en:Chapter 04
00:43:39.492 : en:Chapter 05
00:52:59.927 : en:Chapter 06
01:04:38.458 : en:Chapter 07
01:24:19.638 : en:Chapter 08





Robowar (1988)


Robowar (1988)


Robowar (1988)


Robowar (1988)


Robowar (1988)