Rio Lobo (1970)

Rio Lobo (1970)

Rio Lobo (1970)
DVDRip | 1280x720 | AVI/XviD @ 1500 Kbps, 25 fps | 1h 49mn | 1.3 GB
Audio: French MP3 192 kbps, 2 channels | Subs: None
Genre: Adventure, Western, Romance

Au cours de l'attaque d'un train d'or vers la fin de la guerre de Sécession américaine, un subordonné et ami d'un colonel nordiste est tué. Démobilisé, le colonel poursuit le traître nordiste dont la cupidité fut à l'origine de l'attaque. Il retrouve sa trace à Rio Lobo, un village rançonné, désolé et crépusculaire près de la frontière mexicaine. Et c'est toute sa bande d'écumeurs organisés qu'il va devoir y affronter…

IMDB

Video
ID : 0
Format : MPEG-4 Visual
Format profile : Advanced Simple@L5
Format settings, BVOP : No
Format settings, QPel : No
Format settings, GMC : No warppoints
Format settings, Matrix : Default (MPEG)
Codec ID : XVID
Codec ID/Hint : XviD
Duration : 1h 49mn
Bit rate : 1 500 Kbps
Width : 1 280 pixels
Height : 720 pixels
Display aspect ratio : 16:9
Frame rate : 25.000 fps
Color space : YUV
Chroma subsampling : 4:2:0
Bit depth : 8 bits
Scan type : Progressive
Compression mode : Lossy
Bits/(Pixel*Frame) : 0.065
Stream size : 1.15 GiB (88%)
Writing library : XviD 1.2.1 (UTC 2008-12-04)

Audio
ID : 1
Format : MPEG Audio
Format version : Version 1
Format profile : Layer 3
Codec ID : 55
Codec ID/Hint : MP3
Duration : 1h 49mn
Bit rate mode : Constant
Bit rate : 192 Kbps
Channel(s) : 2 channels
Sampling rate : 44.1 KHz
Compression mode : Lossy
Stream size : 151 MiB (11%)
Alignment : Split accross interleaves
Interleave, duration : 42 ms (1.04 video frame)

Rio Lobo (1970)

Rio Lobo (1970)

Rio Lobo (1970)