Richard Pryor Here and Now (1983)

Richard Pryor Here and Now (1983)

Richard Pryor Here and Now (1983)
WEB-DL 400p | MKV | 720x400 | AVC@1100 Kbps | English AAC@128 Kbps | 2 channels | 1h 34mn | 843 MiB
WEB-DL 1080p | MKV | 1916x1072 | AVC@5160 Kbps | English AAC@121 Kbps | 2 channels | 1h 34mn | 3.50 GiB
Genre: Documentary | Comedy

Part live stand-up performance, part documentary, this film is one of comedian Richard Pryor's later stand-up performances. As foul-mouthed as ever, Pryor touches on most of the same topics as in his previous live shows.
More info


General
Complete name : Richard.Pryor.Here.and.Now.1983.WEB-DL.mp4
Format : MPEG-4
Format profile : Base Media
Codec ID : isom
File size : 843 MiB
Duration : 1h 34mn
Overall bit rate : 1 245 Kbps

Video
ID : 1
Format : AVC
Format/Info : Advanced Video Codec
Format profile : High@L3.1
Format settings, CABAC : Yes
Format settings, ReFrames : 5 frames
Codec ID : avc1
Codec ID/Info : Advanced Video Coding
Duration : 1h 34mn
Bit rate : 1 100 Kbps
Width : 720 pixels
Height : 400 pixels
Display aspect ratio : 16:9
Frame rate mode : Constant
Frame rate : 23.976 fps
Color space : YUV
Chroma subsampling : 4:2:0
Bit depth : 8 bits
Scan type : Progressive
Bits/(Pixel*Frame) : 0.159
Stream size : 752 MiB (89%)
Encoding settings : cabac=1 / ref=5 / deblock=1:-1:-1 / analyse=0x3:0x113 / me=umh / subme=9 / psy=1 / psy_rd=1.00:0.15 / mixed_ref=1 / me_range=16 / chroma_me=1 / trellis=2 / 8x8dct=1 / cqm=0 / deadzone=21,11 / fast_pskip=1 / chroma_qp_offset=-3 / threads=12 / lookahead_threads=1 / sliced_threads=0 / nr=0 / decimate=1 / interlaced=0 / bluray_compat=0 / constrained_intra=0 / bframes=3 / b_pyramid=2 / b_adapt=2 / b_bias=0 / direct=3 / weightb=1 / open_gop=0 / weightp=2 / keyint=250 / keyint_min=23 / scenecut=40 / intra_refresh=0 / rc_lookahead=50 / rc=abr / mbtree=1 / bitrate=1100 / ratetol=1.0 / qcomp=0.60 / qpmin=0 / qpmax=69 / qpstep=4 / ip_ratio=1.40 / aq=1:1.00
Language : English
Encoded date : UTC 2017-02-09 20:32:12
Tagged date : UTC 2017-02-09 20:32:12

Audio
ID : 2
Format : AAC
Format/Info : Advanced Audio Codec
Format profile : LC
Codec ID : 40
Duration : 1h 34mn
Bit rate mode : Constant
Bit rate : 128 Kbps
Channel(s) : 2 channels
Channel positions : Front: L R
Sampling rate : 48.0 KHz
Compression mode : Lossy
Stream size : 86.7 MiB (10%)
Language : English
Encoded date : UTC 2017-02-09 20:32:12
Tagged date : UTC 2017-02-09 20:32:12


General
Unique ID : 219603565083562335086489079746933498522 (0xA5361BB243E9C5C080FC6460BFC7229A)
Complete name : Richard.Pryor.Here.and.Now.1983.1080p.mkv
Format : Matroska
Format version : Version 4 / Version 2
File size : 3.50 GiB
Duration : 1h 34mn
Overall bit rate : 5 284 Kbps

Video
ID : 1
Format : AVC
Format/Info : Advanced Video Codec
Format profile : High@L4
Format settings, CABAC : Yes
Format settings, ReFrames : 4 frames
Codec ID : V_MPEG4/ISO/AVC
Duration : 1h 34mn
Width : 1 916 pixels
Height : 1 072 pixels
Display aspect ratio : 16:9
Frame rate mode : Constant
Frame rate : 23.976 fps
Color space : YUV
Chroma subsampling : 4:2:0
Bit depth : 8 bits
Scan type : Progressive
Language : English
Default : Yes
Forced : No
Color range : Limited
Color primaries : BT.709
Transfer characteristics : BT.709
Matrix coefficients : BT.709

Audio
ID : 2
Format : AAC
Format/Info : Advanced Audio Codec
Format profile : LC
Codec ID : A_AAC
Duration : 1h 34mn
Channel(s) : 2 channels
Channel positions : Front: L R
Sampling rate : 48.0 KHz
Compression mode : Lossy
Language : English
Default : Yes
Forced : No

Menu
00:00:00.000 : en:START
00:06:31.000 : en:HAPPY TO BE IN NEW ORLEANS
00:09:57.000 : en:WARDROBE & SET CRITIC
00:12:58.000 : en:A DIFFERENT BREED
00:15:18.000 : en:THE WEATHER
00:18:51.000 : en:SEVEN MONTHS SOBER
00:29:25.000 : en:MARRIED 4 OR 5 TIMES
00:34:09.000 : en:STRANGE WOMEN
00:36:57.000 : en:FOREIGN POLICY
00:38:08.000 : en:AFRICA
00:44:55.000 : en:THE PRESIDENT
00:46:35.000 : en:DROPPING BOMBS
00:49:02.000 : en:December 7, 1941
00:50:00.000 : en:IN OLD CALIFORNIA
01:01:05.000 : en:A REAL STRANGE FEELING
01:02:23.000 : en:HAZY MEMORIES
01:03:55.000 : en:LISTENING TO THE CRAB
01:07:57.000 : en:THE JUNKIE
01:22:06.000 : en:SIZE MATTERS
01:29:11.000 : en:PUBLIC TOILETS


Screenshots 400p:

Richard Pryor Here and Now (1983)

Richard Pryor Here and Now (1983)

Richard Pryor Here and Now (1983)

Richard Pryor Here and Now (1983)

Screenshots 1080p:

Richard Pryor Here and Now (1983)

Richard Pryor Here and Now (1983)

Richard Pryor Here and Now (1983)

Richard Pryor Here and Now (1983)