Rascal (1969)

Rascal (1969)

Rascal (1969)
WEB-DL | MKV | 1800x1080 | English | H264 @ 12763 kbps | E-AC-3 @ 224 kbps | 1 h 24 min | 7.69 GiB
Subtitles: English
Genre: Drama, Family

A comedy filled with tenderness as a baby raccoon snuggles his way into the life of a lonely boy. He becomes the boy's only companion during his father's frequent absences. Because of Rascal, both father and son realize their responsibility to each other

Rascal.1969.1080p.WEB-DL.DD+2.0.H.264-SbR.mkv (7.7 GB)



General
Unique ID : 194872402079305527657071546592344886768 (0x929B0F381C27D9AEA123C495F19F4DF0)
Complete name : ./Rascal.1969.1080p.WEB-DL.DD+2.0.H.264-SbR.mkv
Format : Matroska
Format version : Version 2
File size : 7.69 GiB
Duration : 1 h 24 min
Overall bit rate mode : Variable
Overall bit rate : 13.0 Mb/s
Encoded date : UTC 2017-12-23 16:21:51
Writing application : mkvmerge v19.0.0 ('Brave Captain') 64-bit
Writing library : libebml v1.3.5 + libmatroska v1.4.8
Cover : Yes
Attachments : cover.jpg

Video
ID : 1
Format : AVC
Format/Info : Advanced Video Codec
Format profile : High@L4
Format settings : CABAC / 4 Ref Frames
Format settings, CABAC : Yes
Format settings, RefFrames : 4 frames
Codec ID : V_MPEG4/ISO/AVC
Duration : 1 h 24 min
Bit rate mode : Variable
Bit rate : 12.8 Mb/s
Maximum bit rate : 15.0 Mb/s
Width : 1 800 pixels
Height : 1 080 pixels
Display aspect ratio : 5:3
Frame rate mode : Constant
Frame rate : 23.976 (24000/1001) FPS
Color space : YUV
Chroma subsampling : 4:2:0
Bit depth : 8 bits
Scan type : Progressive
Bits/(Pixel*Frame) : 0.274
Stream size : 7.55 GiB (98%)
Language : English
Default : Yes
Forced : No
Color range : Limited
Color primaries : BT.709
Transfer characteristics : BT.709
Matrix coefficients : BT.709

Audio
ID : 2
Format : E-AC-3
Format/Info : Enhanced Audio Coding 3
Format settings, Endianness : Big
Codec ID : A_EAC3
Duration : 1 h 24 min
Bit rate mode : Constant
Bit rate : 224 kb/s
Channel(s) : 2 channels
Channel positions : Front: L R
Sampling rate : 48.0 kHz
Frame rate : 187.500 FPS (256 SPF)
Compression mode : Lossy
Stream size : 136 MiB (2%)
Language : English
Service kind : Complete Main
Default : Yes
Forced : No

Text #1
ID : 3
Format : UTF-8
Codec ID : S_TEXT/UTF8
Codec ID/Info : UTF-8 Plain Text
Duration : 1 h 24 min
Bit rate : 72 b/s
Count of elements : 1318
Stream size : 44.7 KiB (0%)
Language : English
Default : No
Forced : No

Text #2
ID : 4
Format : UTF-8
Codec ID : S_TEXT/UTF8
Codec ID/Info : UTF-8 Plain Text
Duration : 1 h 24 min
Bit rate : 76 b/s
Count of elements : 1439
Stream size : 47.4 KiB (0%)
Title : SDH
Language : English
Default : No
Forced : No

Menu
00:00:00.000 : en:01. Opening Credits / Last Day of School
00:05:36.503 : en:02. Sterling's Pa
00:10:05.647 : en:03. Finding Rascal
00:17:04.815 : en:04. Theo's Instructions
00:21:24.283 : en:05. Mrs.Satterfield
00:25:31.071 : en:06. Off to a Good Start
00:31:44.611 : en:07. "Summer Sweet"
00:36:06.498 : en:08. Reverend Thurman
00:41:23.523 : en:09. Dinner Company
00:48:07.176 : en:10. From Bad to Worse
00:55:27.241 : en:11. A Cage for Rascal
00:57:59.726 : en:12. Race At Miller's Grove
01:04:34.496 : en:13. Theo's Homecoming
01:11:25.823 : en:14. Paying the Price
01:16:03.059 : en:15. We All Have to Grow Up Sometime
01:20:51.805 : en:16. Old Mother Nature / The End





Rascal (1969)


Rascal (1969)


Rascal (1969)


Rascal (1969)


Rascal (1969)