Promised Land (1987)

Promised Land (1987)

Promised Land (1987)
WEB-DL | MKV | 1920x1080 | English | H264 @ 12270 kbps | E-AC-3 @ 224 kbps | 1 h 42 min | 8.97 GiB
Subtitles: English
Genre: Drama, Romance

Three recent high school grads - star athlete Hancock, his cheerleader girlfriend, Mary, and the awkward Senator - aim to leave their small town behind and realize big dreams, but their idealistic plans collide with life's harsh realities.

Promised.Land.1987.1080p.AMZN.WEB-DL.DDP2.0.H.264-ETHiCS=8d855624c4d270e0f260b72e6cfc46dd82c80c44.part1.rar (4.7 GB)
Promised.Land.1987.1080p.AMZN.WEB-DL.DDP2.0.H.264-ETHiCS=8d855624c4d270e0f260b72e6cfc46dd82c80c44.part2.rar (4.4 GB)



General
Unique ID : 192115232049423145174668788800337180248 (0x90880C3DC7B0E43D4A67952327737658)
Complete name : ./Promised.Land.1987.1080p.AMZN.WEB-DL.DDP2.0.H.264-ETHiCS.mkv
Format : Matroska
Format version : Version 4 / Version 2
File size : 8.97 GiB
Duration : 1 h 42 min
Overall bit rate : 12.5 Mb/s
Encoded date : UTC 2019-02-18 22:17:38
Writing application : mkvmerge v25.0.0 ('Prog Noir') 32-bit
Writing library : libebml v1.3.6 + libmatroska v1.4.9

Video
ID : 1
Format : AVC
Format/Info : Advanced Video Codec
Format profile : High@L4
Format settings : CABAC / 4 Ref Frames
Format settings, CABAC : Yes
Format settings, RefFrames : 4 frames
Codec ID : V_MPEG4/ISO/AVC
Duration : 1 h 42 min
Bit rate : 12.3 Mb/s
Width : 1 920 pixels
Height : 1 080 pixels
Display aspect ratio : 16:9
Frame rate mode : Constant
Frame rate : 23.976 (24000/1001) FPS
Color space : YUV
Chroma subsampling : 4:2:0
Bit depth : 8 bits
Scan type : Progressive
Bits/(Pixel*Frame) : 0.247
Stream size : 8.81 GiB (98%)
Default : Yes
Forced : No
Color range : Limited
Color primaries : BT.709
Transfer characteristics : BT.709
Matrix coefficients : BT.709

Audio
ID : 2
Format : E-AC-3
Format/Info : Enhanced Audio Coding 3
Format settings, Endianness : Big
Codec ID : A_EAC3
Duration : 1 h 42 min
Bit rate mode : Constant
Bit rate : 224 kb/s
Channel(s) : 2 channels
Channel positions : Front: L R
Sampling rate : 48.0 kHz
Frame rate : 187.500 FPS (256 SPF)
Compression mode : Lossy
Stream size : 165 MiB (2%)
Title : English
Language : English
Service kind : Complete Main
Default : Yes
Forced : No

Text
ID : 3
Format : UTF-8
Codec ID : S_TEXT/UTF8
Codec ID/Info : UTF-8 Plain Text
Duration : 1 h 38 min
Bit rate : 48 b/s
Count of elements : 1597
Stream size : 35.1 KiB (0%)
Title : English [SDH]
Language : English
Default : No
Forced : No





Promised Land (1987)


Promised Land (1987)


Promised Land (1987)


Promised Land (1987)


Promised Land (1987)