Pretty Poison (1968) [Remastered]

Pretty Poison (1968) [Remastered]

Pretty Poison (1968) [Remastered]
BDRip 720p | MKV | 1280x688 | AVC@6257 kb/s | English FLAC@738 kb/s
2 channels | 1 h 29 min | 4.36 GB
Genre: Comedy, Crime, Romance

When a mentally disturbed young man tells a pretty girl that he's a secret agent, she believes him, and murder and mayhem ensue.

IMDB - 1 win & 1 nomination


General
Complete name : Pretty.Poison.1968.REMASTERED.720p.BluRay.x264-SADPANDA\Pretty.Poison.1968.REMASTERED.720p.BluRay.x264-SADPANDA.mkv
Format : Matroska
Format version : Version 4 / Version 2
File size : 4.36 GiB
Duration : 1 h 29 min
Overall bit rate mode : Variable
Overall bit rate : 6 997 kb/s
Encoded date : UTC 2017-03-10 14:22:03
Writing application : mkvmerge v9.9.0 ('Pick Up') 64bit
Writing library : libebml v1.3.4 + libmatroska v1.4.5

Video
ID : 1
Format : AVC
Format/Info : Advanced Video Codec
Format profile : High@L4.1
Format settings, CABAC : Yes
Format settings, ReFrames : 5 frames
Codec ID : V_MPEG4/ISO/AVC
Duration : 1 h 29 min
Bit rate : 6 257 kb/s
Width : 1 280 pixels
Height : 688 pixels
Display aspect ratio : 1.85:1
Frame rate mode : Constant
Frame rate : 23.976 (24000/1001) FPS
Color space : YUV
Chroma subsampling : 4:2:0
Bit depth : 8 bits
Scan type : Progressive
Bits/(Pixel*Frame) : 0.296
Stream size : 3.90 GiB (89%)
Writing library : x264 core 148 r2744 b97ae06
Encoding settings : cabac=1 / ref=5 / deblock=1:-3:-3 / analyse=0x3:0x113 / me=umh / subme=8 / psy=1 / psy_rd=1.00:0.25 / mixed_ref=1 / me_range=24 / chroma_me=1 / trellis=1 / 8x8dct=1 / cqm=0 / deadzone=21,11 / fast_pskip=1 / chroma_qp_offset=-4 / threads=21 / lookahead_threads=3 / sliced_threads=0 / nr=0 / decimate=1 / interlaced=0 / bluray_compat=0 / constrained_intra=0 / bframes=3 / b_pyramid=2 / b_adapt=1 / b_bias=0 / direct=3 / weightb=1 / open_gop=0 / weightp=2 / keyint=240 / keyint_min=24 / scenecut=40 / intra_refresh=0 / rc_lookahead=50 / rc=2pass / mbtree=1 / bitrate=6257 / ratetol=1.0 / qcomp=0.60 / qpmin=0 / qpmax=69 / qpstep=4 / cplxblur=20.0 / qblur=0.5 / ip_ratio=1.40 / aq=1:0.75
Default : Yes
Forced : No

Audio
ID : 2
Format : FLAC
Format/Info : Free Lossless Audio Codec
Codec ID : A_FLAC
Duration : 1 h 29 min
Bit rate mode : Variable
Bit rate : 738 kb/s
Channel(s) : 2 channels
Channel positions : Front: L R
Sampling rate : 48.0 kHz
Frame rate : 11.719 FPS (4096 spf)
Bit depth : 24 bits
Stream size : 471 MiB (11%)
Writing library : libFLAC 1.2.1 (UTC 2007-09-17)
Language : English
Default : Yes
Forced : No

Menu
00:00:00.000 : en:00:00:00.000
00:04:06.788 : en:00:04:06.788
00:07:26.821 : en:00:07:26.821
00:11:20.346 : en:00:11:20.346
00:14:23.780 : en:00:14:23.780
00:19:17.073 : en:00:19:17.073
00:23:09.597 : en:00:23:09.597
00:27:10.379 : en:00:27:10.379
00:28:49.770 : en:00:28:49.770
00:33:27.172 : en:00:33:27.172
00:37:14.566 : en:00:37:14.566
00:41:10.259 : en:00:41:10.259
00:43:35.571 : en:00:43:35.571
00:48:39.333 : en:00:48:39.333
00:51:27.001 : en:00:51:27.001
00:54:30.893 : en:00:54:30.893
00:58:22.999 : en:00:58:22.999
01:03:16.543 : en:01:03:16.543
01:08:05.039 : en:01:08:05.039
01:10:53.332 : en:01:10:53.332
01:14:43.396 : en:01:14:43.396
01:18:06.098 : en:01:18:06.098
01:22:54.553 : en:01:22:54.553
01:25:39.051 : en:01:25:39.051


BDRip 720p Screenshots

Pretty Poison (1968) [Remastered]

Pretty Poison (1968) [Remastered]

Pretty Poison (1968) [Remastered]

Pretty Poison (1968) [Remastered]


Come Visit My Blog (•‿•)