Poor Cow (1967)

Poor Cow (1967)

Poor Cow (1967)
BDRip 720p | MKV | 1200x720 | AVC@5528 kb/s | English AC3@640 kb/s
2 channels | 1 h 41 min | 4.37 GB
Genre: Drama

A young woman lives a life filled with bad choices. She marries and has a child with an abusive thief at a young age who quickly ends up in prison. Left alone she takes up with his mate (another thief) who seems to give her some happiness but who also ends up in the nick. She then takes up with a series of seedy types who offer nothing but momentary pleasure. Her son goes missing and she briefly comes to grips with what is most important to her.

IMDB - Nominated for 1 Golden Globe. Another 1 win


General
Poor.Cow.1967.720p.BluRay.x264-SPOOKS\poor.cow.1967.720p.bluray.x264-spooks.mkv
Format : Matroska
Format version : Version 4 / Version 2
File size : 4.37 GiB
Duration : 1 h 41 min
Overall bit rate : 6 170 kb/s
Encoded date : UTC 2017-08-14 17:22:17
Writing application : mkvmerge v13.0.0 ('The Juggler') 64bit
Writing library : libebml v1.3.4 + libmatroska v1.4.5

Video
ID : 1
Format : AVC
Format/Info : Advanced Video Codec
Format profile : High@L4.1
Format settings, CABAC : Yes
Format settings, ReFrames : 5 frames
Codec ID : V_MPEG4/ISO/AVC
Duration : 1 h 41 min
Bit rate : 5 528 kb/s
Width : 1 200 pixels
Height : 720 pixels
Display aspect ratio : 5:3
Frame rate mode : Constant
Frame rate : 24.000 FPS
Color space : YUV
Chroma subsampling : 4:2:0
Bit depth : 8 bits
Scan type : Progressive
Bits/(Pixel*Frame) : 0.267
Stream size : 3.83 GiB (88%)
Writing library : x264 core 152 r2851kMod ba24899
Encoding settings : cabac=1 / ref=5 / deblock=1:-3:-3 / analyse=0x3:0x133 / me=umh / subme=8 / psy=1 / fade_compensate=0.00 / psy_rd=1.00:0.00 / mixed_ref=1 / me_range=16 / chroma_me=1 / trellis=1 / 8x8dct=1 / cqm=0 / deadzone=21,11 / fast_pskip=0 / chroma_qp_offset=-2 / threads=6 / lookahead_threads=1 / sliced_threads=0 / nr=0 / decimate=1 / interlaced=0 / bluray_compat=0 / constrained_intra=0 / bframes=3 / b_pyramid=2 / b_adapt=1 / b_bias=0 / direct=3 / weightb=1 / open_gop=0 / weightp=2 / keyint=250 / keyint_min=24 / scenecut=40 / intra_refresh=0 / rc_lookahead=50 / rc=2pass / mbtree=1 / bitrate=5528 / ratetol=1.0 / qcomp=0.60 / qpmin=0 / qpmax=69 / qpstep=4 / cplxblur=20.0 / qblur=0.5 / vbv_maxrate=62500 / vbv_bufsize=78125 / nal_hrd=none / filler=0 / ip_ratio=1.40 / aq=1:1.00
Default : Yes
Forced : No

Audio
ID : 2
Format : AC-3
Format/Info : Audio Coding 3
Mode extension : CM (complete main)
Format settings, Endianness : Big
Codec ID : A_AC3
Duration : 1 h 41 min
Bit rate mode : Constant
Bit rate : 640 kb/s
Channel(s) : 2 channels
Channel positions : Front: L R
Sampling rate : 48.0 kHz
Frame rate : 31.250 FPS (1536 spf)
Bit depth : 16 bits
Compression mode : Lossy
Stream size : 464 MiB (10%)
Language : English
Default : Yes
Forced : No

Menu
00:00:00.000 : en:00:00:00.000
00:13:29.583 : en:00:13:29.583
00:27:39.125 : en:00:27:39.125
00:39:17.250 : en:00:39:17.250
00:55:00.667 : en:00:55:00.667
01:09:10.125 : en:01:09:10.125
01:22:52.500 : en:01:22:52.500
01:31:49.583 : en:01:31:49.583


BDRip 720p Screenshots

Poor Cow (1967)

Poor Cow (1967)

Poor Cow (1967)

Poor Cow (1967)

Poor Cow (1967)


Come Visit My Blog (•‿•)