Pippi on the Run / På rymmen med Pippi Långstrump (1970)

Pippi on the Run / På rymmen med Pippi Långstrump (1970)

Pippi on the Run / På rymmen med Pippi Långstrump (1970)
BDRip | MKV | 720x404 | AVC@1614 kb/s | English (Dubbed) AAC@91.9 kb/s
1 channel | 1 h 36 min | 1.12 GB
Genre: Adventure, Family

Fed up with their strict parents, Tommy and Annika run away from home, with their friend Pippi Longstocking to look after them in their long trek.



General
Complete name : Pippi.on.the.Run.1970.DUBBED.BDRip.x264-SPRiNTER\pippi.on.the.run.1970.dubbed.bdrip.x264-sprinter.mkv
Format : Matroska
Format version : Version 4 / Version 2
File size : 1.13 GiB
Duration : 1 h 36 min
Overall bit rate : 1 678 kb/s
Encoded date : UTC 2017-04-11 19:13:38
Writing application : mkvmerge v8.3.0 ('Over the Horizon') 64bit
Writing library : libebml v1.3.1 + libmatroska v1.4.2

Video
ID : 1
Format : AVC
Format/Info : Advanced Video Codec
Format profile : High@L3.1
Format settings, CABAC : Yes
Format settings, ReFrames : 5 frames
Codec ID : V_MPEG4/ISO/AVC
Duration : 1 h 34 min
Bit rate : 1 614 kb/s
Width : 720 pixels
Height : 404 pixels
Display aspect ratio : 16:9
Frame rate mode : Constant
Frame rate : 23.976 (24000/1001) FPS
Color space : YUV
Chroma subsampling : 4:2:0
Bit depth : 8 bits
Scan type : Progressive
Bits/(Pixel*Frame) : 0.231
Stream size : 1.07 GiB (94%)
Writing library : x264 core 148 r2744 b97ae06
Encoding settings : cabac=1 / ref=5 / deblock=1:-1:-1 / analyse=0x3:0x113 / me=umh / subme=8 / psy=1 / psy_rd=1.00:0.15 / mixed_ref=1 / me_range=16 / chroma_me=1 / trellis=2 / 8x8dct=1 / cqm=0 / deadzone=21,11 / fast_pskip=1 / chroma_qp_offset=-3 / threads=13 / lookahead_threads=2 / sliced_threads=0 / nr=0 / decimate=1 / interlaced=0 / bluray_compat=0 / constrained_intra=0 / bframes=3 / b_pyramid=2 / b_adapt=1 / b_bias=0 / direct=3 / weightb=1 / open_gop=0 / weightp=2 / keyint=250 / keyint_min=23 / scenecut=40 / intra_refresh=0 / rc_lookahead=50 / rc=crf / mbtree=1 / crf=21.0 / qcomp=0.60 / qpmin=0 / qpmax=69 / qpstep=4 / ip_ratio=1.40 / aq=1:1.00
Language : English
Default : Yes
Forced : No
Color range : Limited
Matrix coefficients : BT.709

Audio
ID : 2
Format : AAC
Format/Info : Advanced Audio Codec
Format profile : LC
Codec ID : A_AAC
Duration : 1 h 36 min
Bit rate : 91.9 kb/s
Channel(s) : 1 channel
Channel positions : Front: C
Sampling rate : 48.0 kHz
Frame rate : 46.875 FPS (1024 spf)
Compression mode : Lossy
Delay relative to video : 9 ms
Stream size : 63.4 MiB (5%)
Language : English
Default : Yes
Forced : No

Menu
00:00:00.000 : en:00:00:00.000
00:09:04.419 : en:00:09:04.419
00:15:30.596 : en:00:15:30.596
00:18:22.518 : en:00:18:22.518
00:29:05.911 : en:00:29:05.911
00:40:30.094 : en:00:40:30.094
00:49:06.610 : en:00:49:06.610
00:57:03.754 : en:00:57:03.754
01:03:07.409 : en:01:03:07.409
01:07:29.587 : en:01:07:29.587
01:18:12.104 : en:01:18:12.104
01:28:28.261 : en:01:28:28.261


BDRip Screenshots

Pippi on the Run / På rymmen med Pippi Långstrump (1970)

Pippi on the Run / På rymmen med Pippi Långstrump (1970)

Pippi on the Run / På rymmen med Pippi Långstrump (1970)


Come Visit My Blog (•‿•)