Picasso Trigger (1988)

Picasso Trigger (1988)

Picasso Trigger (1988)
BDRip | MKV | 1280x720 | English | H264 @ 6434 kbps | DTS @ 1509 kbps | 1 h 38 min | 5.47 GiB
Genre: Action, Crime

Double agent Picasso Trigger is assassinated in Paris by double-crossing bad guy Miguel Ortiz. Then Ortiz begins eliminating agents of The Agency who were involved in his brother's death. The Agency (belatedly) springs into action to stop Ortiz' heinous activities. The usual gunplay, romance, and nifty toys with bombs ensue.

37dffc506ab54aed8d39e13844bde5a7.mkv (5.5 GB)



General
Unique ID : 1255722883059660905697738521515044399 (0xF1D7EB0B3624ED5B889A409906AE2F)
Complete name : ./37dffc506ab54aed8d39e13844bde5a7.mkv
Format : Matroska
Format version : Version 2
File size : 5.47 GiB
Duration : 1 h 38 min
Overall bit rate : 7 945 kb/s
Encoded date : UTC 2019-07-11 06:14:36
Writing application : mkvmerge v34.0.0 ('Sight and Seen') 64-bit
Writing library : libebml v1.3.7 + libmatroska v1.5.0

Video
ID : 1
Format : AVC
Format/Info : Advanced Video Codec
Format profile : High@L4.1
Format settings : CABAC / 5 Ref Frames
Format settings, CABAC : Yes
Format settings, RefFrames : 5 frames
Codec ID : V_MPEG4/ISO/AVC
Duration : 1 h 38 min
Bit rate : 6 434 kb/s
Width : 1 280 pixels
Height : 720 pixels
Display aspect ratio : 16:9
Frame rate mode : Constant
Frame rate : 23.976 (24000/1001) FPS
Color space : YUV
Chroma subsampling : 4:2:0
Bit depth : 8 bits
Scan type : Progressive
Bits/(Pixel*Frame) : 0.291
Stream size : 4.43 GiB (81%)
Writing library : x264 core 157 r2969 d4099dd
Encoding settings : cabac=1 / ref=5 / deblock=1:0:0 / analyse=0x3:0x133 / me=umh / subme=7 / psy=1 / psy_rd=1.00:0.00 / mixed_ref=1 / me_range=16 / chroma_me=1 / trellis=1 / 8x8dct=1 / cqm=0 / deadzone=21,11 / fast_pskip=0 / chroma_qp_offset=-2 / threads=18 / lookahead_threads=3 / sliced_threads=0 / nr=0 / decimate=1 / interlaced=0 / bluray_compat=0 / constrained_intra=0 / bframes=3 / b_pyramid=2 / b_adapt=1 / b_bias=0 / direct=1 / weightb=1 / open_gop=0 / weightp=2 / keyint=240 / keyint_min=23 / scenecut=40 / intra_refresh=0 / rc_lookahead=40 / rc=2pass / mbtree=1 / bitrate=6434 / ratetol=1.0 / qcomp=0.60 / qpmin=10 / qpmax=51 / qpstep=4 / cplxblur=20.0 / qblur=0.5 / ip_ratio=1.40 / aq=1:1.00
Default : Yes
Forced : No

Audio
ID : 2
Format : DTS
Format/Info : Digital Theater Systems
Mode : 16
Format settings, Endianness : Big
Codec ID : A_DTS
Duration : 1 h 38 min
Bit rate mode : Constant
Bit rate : 1 509 kb/s
Channel(s) : 2 channels
Channel positions : Front: L R
Sampling rate : 48.0 kHz
Frame rate : 93.750 FPS (512 SPF)
Bit depth : 24 bits
Compression mode : Lossy
Stream size : 1.04 GiB (19%)
Language : English
Default : Yes
Forced : No

Menu
00:00:00.000 : en:Chapter 01
00:11:46.915 : en:Chapter 02
00:21:02.344 : en:Chapter 03
00:29:18.257 : en:Chapter 04
00:39:15.228 : en:Chapter 05
00:48:53.472 : en:Chapter 06
00:59:07.044 : en:Chapter 07
01:04:54.057 : en:Chapter 08
01:11:10.016 : en:Chapter 09
01:19:19.630 : en:Chapter 10
01:27:47.304 : en:Chapter 11
01:35:32.393 : en:Chapter 12
01:38:28.111 : en:Chapter 13





Picasso Trigger (1988)


Picasso Trigger (1988)


Picasso Trigger (1988)


Picasso Trigger (1988)


Picasso Trigger (1988)