Phantasm II (1988)

Phantasm II (1988)

Phantasm II (1988)
BDRip | MKV | 1280x690 | English / English | H264 @ 6189 kbps | DTS @ 1509 kbps | 1 h 36 min | 5.33 GiB
Subtitles: English
Genre: Action, Horror, Science Fiction, Thriller

Mike, after his release from a psychiatric hospital, teams up with his old pal Reggie to hunt down the Tall Man, who is at it again. A mysterious, beautiful girl has also become part of Mike's dreams, and they must find her before the Tall Man does.

589ff32b5b69472993c149d67f07e32e.mkv (5.3 GB)



General
Unique ID : 206727700045255198037591526207795343397 (0x9B864E8978A8C2FE89FF152A3B2DB025)
Complete name : ./589ff32b5b69472993c149d67f07e32e.mkv
Format : Matroska
Format version : Version 4 / Version 2
File size : 5.33 GiB
Duration : 1 h 36 min
Overall bit rate : 7 901 kb/s
Encoded date : UTC 2019-08-08 01:47:21
Writing application : mkvmerge v9.5.0 ('Quiet Fire') 64bit
Writing library : libebml v1.3.4 + libmatroska v1.4.5 / Lavf58.20.100

Video
ID : 1
Format : AVC
Format/Info : Advanced Video Codec
Format profile : High@L4.1
Format settings : CABAC / 9 Ref Frames
Format settings, CABAC : Yes
Format settings, RefFrames : 9 frames
Codec ID : V_MPEG4/ISO/AVC
Duration : 1 h 36 min
Bit rate : 6 190 kb/s
Width : 1 280 pixels
Height : 690 pixels
Display aspect ratio : 1.85:1
Frame rate mode : Constant
Frame rate : 23.976 (24000/1001) FPS
Color space : YUV
Chroma subsampling : 4:2:0
Bit depth : 8 bits
Scan type : Progressive
Bits/(Pixel*Frame) : 0.292
Stream size : 4.18 GiB (78%)
Writing library : x264 core 157 r2935 545de2f
Encoding settings : cabac=1 / ref=9 / deblock=1:-3:-3 / analyse=0x3:0x133 / me=umh / subme=9 / psy=1 / psy_rd=1.00:0.00 / mixed_ref=1 / me_range=24 / chroma_me=1 / trellis=2 / 8x8dct=1 / cqm=0 / deadzone=21,11 / fast_pskip=0 / chroma_qp_offset=-2 / threads=6 / lookahead_threads=1 / sliced_threads=0 / nr=0 / decimate=1 / interlaced=0 / bluray_compat=0 / constrained_intra=0 / bframes=6 / b_pyramid=2 / b_adapt=2 / b_bias=0 / direct=3 / weightb=1 / open_gop=0 / weightp=2 / keyint=240 / keyint_min=24 / scenecut=40 / intra_refresh=0 / rc_lookahead=60 / rc=crf / mbtree=1 / crf=15.0 / qcomp=0.60 / qpmin=0 / qpmax=69 / qpstep=4 / vbv_maxrate=62500 / vbv_bufsize=78125 / crf_max=0.0 / nal_hrd=none / filler=0 / ip_ratio=1.40 / aq=1:1.00
Default : Yes
Forced : No
Color range : Limited
Color primaries : BT.709
Transfer characteristics : BT.709
Matrix coefficients : BT.709

Audio #1
ID : 2
Format : DTS
Format/Info : Digital Theater Systems
Mode : 16
Format settings, Endianness : Big
Codec ID : A_DTS
Duration : 1 h 36 min
Bit rate mode : Constant
Bit rate : 1 509 kb/s
Channel(s) : 6 channels
Channel positions : Front: L C R, Side: L R, LFE
Sampling rate : 48.0 kHz
Frame rate : 93.750 FPS (512 SPF)
Bit depth : 24 bits
Compression mode : Lossy
Stream size : 1.02 GiB (19%)
Title : DTS 5.1 Audio
Language : English
Default : Yes
Forced : No

Audio #2
ID : 3
Format : AC-3
Format/Info : Audio Coding 3
Format settings, Endianness : Big
Codec ID : A_AC3
Duration : 1 h 36 min
Bit rate mode : Constant
Bit rate : 192 kb/s
Channel(s) : 2 channels
Channel positions : Front: L R
Sampling rate : 48.0 kHz
Frame rate : 31.250 FPS (1536 SPF)
Bit depth : 16 bits
Compression mode : Lossy
Stream size : 133 MiB (2%)
Title : Commentary with Writer/Director Don Coscarelli and Actors Reggie Bannister (Reggie) and Angus Scrimm (The Tall Man)
Language : English
Service kind : Complete Main
Default : No
Forced : No

Text
ID : 4
Format : PGS
Muxing mode : zlib
Codec ID : S_HDMV/PGS
Codec ID/Info : Picture based subtitle format used on BDs/HD-DVDs
Duration : 1 h 31 min
Bit rate : 8 768 b/s
Count of elements : 1111
Stream size : 5.75 MiB (0%)
Language : English
Default : No
Forced : No

Menu
00:00:00.000 : :Chapter 1
00:08:25.839 : :Chapter 2
00:16:45.046 : :Chapter 3
00:25:45.002 : :Chapter 4
00:33:52.239 : :Chapter 5
00:41:11.803 : :Chapter 6
00:49:20.458 : :Chapter 7
00:58:01.979 : :Chapter 8
01:08:08.459 : :Chapter 9
01:16:54.318 : :Chapter 10
01:25:07.894 : :Chapter 11
01:32:53.485 : :Chapter 12





Phantasm II (1988)


Phantasm II (1988)


Phantasm II (1988)


Phantasm II (1988)


Phantasm II (1988)