Pete Kelly's Blues (1955)

Pete Kelly's Blues (1955)

Pete Kelly's Blues (1955)
BDRip | MKV | 1920x752 | English | H264 @ 8320 kbps | DTS @ 1509 kbps | 1 h 35 min | 6.55 GiB
Subtitles: Dutch
Genre: Drama, Action, Music

In 1927 Kansas City Pete Kelly and his jazz band play nightly at a speakeasy. A local gangster starts to move in on them and when their drummer is killed Kelly gives in…

Pete Kellys Blues 1955 1080p BluRay x264-DAA.srt (70.6 KB)
Pete Kellys Blues 1955 1080p BluRay x264-DAA.mkv (6.6 GB)



General
Unique ID : 5502779518428145123798840278103108814 (0x423CBFA1D3DA5D13C5DF3A802482CCE)
Complete name : ./Pete Kellys Blues 1955 1080p BluRay x264-DAA.mkv
Format : Matroska
Format version : Version 4 / Version 2
File size : 6.55 GiB
Duration : 1 h 35 min
Overall bit rate : 9 830 kb/s
Encoded date : UTC 2019-10-06 21:26:25
Writing application : mkvmerge v37.0.0 ('Leave It') 64-bit
Writing library : libebml v1.3.9 + libmatroska v1.5.2
Cover : Yes
Attachments : cover.png

Video
ID : 1
Format : AVC
Format/Info : Advanced Video Codec
Format profile : High@L4.1
Format settings : CABAC / 5 Ref Frames
Format settings, CABAC : Yes
Format settings, RefFrames : 5 frames
Codec ID : V_MPEG4/ISO/AVC
Duration : 1 h 35 min
Bit rate : 8 320 kb/s
Width : 1 920 pixels
Height : 752 pixels
Display aspect ratio : 2.553
Frame rate mode : Constant
Frame rate : 23.976 (24000/1001) FPS
Color space : YUV
Chroma subsampling : 4:2:0
Bit depth : 8 bits
Scan type : Progressive
Bits/(Pixel*Frame) : 0.240
Stream size : 5.54 GiB (85%)
Writing library : x264 core 142 r2479kMod dd79a61
Encoding settings : cabac=1 / ref=5 / deblock=1:0:0 / analyse=0x3:0x133 / me=umh / subme=7 / psy=1 / fade_compensate=0.00 / psy_rd=1.00:0.00 / mixed_ref=1 / me_range=16 / chroma_me=1 / trellis=1 / 8x8dct=1 / cqm=0 / deadzone=21,11 / fast_pskip=1 / chroma_qp_offset=-2 / threads=18 / lookahead_threads=3 / sliced_threads=0 / nr=0 / decimate=1 / interlaced=0 / bluray_compat=0 / constrained_intra=0 / fgo=0 / bframes=3 / b_pyramid=2 / b_adapt=2 / b_bias=0 / direct=3 / weightb=1 / open_gop=0 / weightp=2 / keyint=250 / keyint_min=23 / scenecut=40 / intra_refresh=0 / rc_lookahead=40 / rc=2pass / mbtree=1 / bitrate=8320 / ratetol=1.0 / qcomp=0.60 / qpmin=0 / qpmax=69 / qpstep=4 / cplxblur=20.0 / qblur=0.5 / ip_ratio=1.40 / aq=1:1.00
Default : Yes
Forced : No

Audio
ID : 2
Format : DTS
Format/Info : Digital Theater Systems
Mode : 16
Format settings, Endianness : Big
Codec ID : A_DTS
Duration : 1 h 35 min
Bit rate mode : Constant
Bit rate : 1 509 kb/s
Channel(s) : 6 channels
Channel positions : Front: L C R, Side: L R, LFE
Sampling rate : 48.0 kHz
Frame rate : 93.750 FPS (512 SPF)
Bit depth : 24 bits
Compression mode : Lossy
Stream size : 1.01 GiB (15%)
Language : English
Default : Yes
Forced : No

Text
ID : 3
Format : UTF-8
Codec ID : S_TEXT/UTF8
Codec ID/Info : UTF-8 Plain Text
Duration : 1 h 34 min
Bit rate : 53 b/s
Count of elements : 862
Stream size : 37.0 KiB (0%)
Language : Dutch
Default : Yes
Forced : No

Menu
00:00:00.000 : en:00:00:00.000
00:00:42.042 : en:00:00:42.042
00:01:39.057 : en:00:01:39.057
00:03:16.446 : en:00:03:16.446
00:06:04.155 : en:00:06:04.155
00:10:00.141 : en:00:10:00.141
00:13:50.663 : en:00:13:50.663
00:16:08.968 : en:00:16:08.968
00:16:58.434 : en:00:16:58.434
00:18:36.574 : en:00:18:36.574
00:22:09.620 : en:00:22:09.620
00:24:55.119 : en:00:24:55.119
00:28:44.306 : en:00:28:44.306
00:32:22.023 : en:00:32:22.023
00:36:24.474 : en:00:36:24.474
00:36:44.661 : en:00:36:44.661
00:39:22.694 : en:00:39:22.694
00:42:12.947 : en:00:42:12.947
00:47:12.455 : en:00:47:12.455
00:49:06.944 : en:00:49:06.944
00:51:36.135 : en:00:51:36.135
00:52:31.815 : en:00:52:31.815
00:54:33.604 : en:00:54:33.604
00:58:34.720 : en:00:58:34.720
01:01:59.549 : en:01:01:59.549
01:04:52.347 : en:01:04:52.347
01:08:43.328 : en:01:08:43.328
01:12:47.071 : en:01:12:47.071
01:15:10.047 : en:01:15:10.047
01:20:15.811 : en:01:20:15.811
01:20:32.661 : en:01:20:32.661
01:23:27.961 : en:01:23:27.961
01:27:13.687 : en:01:27:13.687
01:30:29.424 : en:01:30:29.424
01:34:14.649 : en:01:34:14.649
01:35:05.825 : en:01:35:05.825





Pete Kelly's Blues (1955)


Pete Kelly's Blues (1955)


Pete Kelly's Blues (1955)


Pete Kelly's Blues (1955)


Pete Kelly's Blues (1955)