Perfect Friday (1970)

Perfect Friday (1970)

Perfect Friday (1970)
BDRip | MKV | 960 x 576 | AVC @ 2858 Kbps | 94 min | 2.02 Gb
Audio: English AC3 2.0 @ 192 Kbps | Subs: English (Embedded)
Genre: Comedy, Crime | UK

The deputy manager of a London bank has worked out a way to rob the branch of £200,000. When he becomes involved with the attractive Lady Dorset he decides to go ahead with his plan. He needs her help and that of her philandering spendthrift husband. It all comes down to a matter of trust.

IMDB 6.5/10 from 428 users

Director: Peter Hall
Writer: Anthony Greville-Bell (screenplay), Scott Forbes (screenplay), Scott Forbes (original story)
Actors: Ursula Andress, Stanley Baker, David Warner, Patience Collier
Rated: R
Runtime: 94 min

Directed by Sir Peter Hall and featuring cool tunes by Johnny Dankworth, this sexy, mischievous early '70s crime caper stars the always-watchable Stanley Baker as a bank manager who teams up with a glamorous, aristocratic couple (David Warner and Ursula Andress) to pull off the ultimate inside job. Perfect Friday is featured here in a brand-new transfer from original film elements in its as-exhibited theatrical aspect ratio.

Lord Nicholas Dorset and his beautiful wife Britt live entirely beyond their means, while their timid bank manager Mr Graham has long envied his customers' wealth. Having devised an apparently foolproof plan to rob his own bank, Mr Graham decides that Nicholas and Britt's desperate financial situation makes them his ideal accomplices…

Perfect Friday (1970)

Perfect Friday (1970)

Perfect Friday (1970)

Perfect Friday (1970)


Perfect Friday (1970)



General
Unique ID : 180950511958494677119260879484237071190 (0x8821CD0A9EDB9625BED639B565BF4356)
Complete name : E:\HDNLUF014\New folder\Peter Hall - (1970) Perfect Friday.mkv
Format : Matroska
Format version : Version 2
File size : 2.02 GiB
Duration : 1 h 34 min
Overall bit rate : 3 058 kb/s
Encoded date : UTC 2017-09-14 17:06:03
Writing application : mkvmerge v15.0.0 ('Duel with the Devil') 64-bit
Writing library : libebml v1.3.5 + libmatroska v1.4.5

Video
ID : 1
Format : AVC
Format/Info : Advanced Video Codec
Format profile : High@L4.1
Format settings, CABAC : Yes
Format settings, ReFrames : 10 frames
Codec ID : V_MPEG4/ISO/AVC
Duration : 1 h 34 min
Bit rate : 2 858 kb/s
Width : 960 pixels
Height : 576 pixels
Display aspect ratio : 5:3
Frame rate mode : Constant
Frame rate : 24.000 FPS
Color space : YUV
Chroma subsampling : 4:2:0
Bit depth : 8 bits
Scan type : Progressive
Bits/(Pixel*Frame) : 0.215
Stream size : 1.88 GiB (93%)
Writing library : x264 core 152 r2851 ba24899
Encoding settings : cabac=1 / ref=10 / deblock=1:-1:-1 / analyse=0x3:0x133 / me=umh / subme=10 / psy=1 / psy_rd=1.00:0.15 / mixed_ref=1 / me_range=32 / chroma_me=1 / trellis=2 / 8x8dct=1 / cqm=0 / deadzone=21,11 / fast_pskip=0 / chroma_qp_offset=-3 / threads=12 / lookahead_threads=2 / sliced_threads=0 / nr=0 / decimate=0 / interlaced=0 / bluray_compat=0 / constrained_intra=0 / bframes=7 / b_pyramid=2 / b_adapt=2 / b_bias=0 / direct=3 / weightb=1 / open_gop=0 / weightp=2 / keyint=240 / keyint_min=24 / scenecut=40 / intra_refresh=0 / rc_lookahead=60 / rc=crf / mbtree=0 / crf=19.8 / qcomp=0.60 / qpmin=0 / qpmax=69 / qpstep=4 / vbv_maxrate=62500 / vbv_bufsize=78125 / crf_max=0.0 / nal_hrd=none / filler=0 / ip_ratio=1.40 / pb_ratio=1.30 / aq=1:1.00
Language : English
Default : Yes
Forced : No
Color range : Limited
Matrix coefficients : BT.709

Audio
ID : 2
Format : AC-3
Format/Info : Audio Coding 3
Mode extension : CM (complete main)
Format settings, Endianness : Big
Codec ID : A_AC3
Duration : 1 h 34 min
Bit rate mode : Constant
Bit rate : 192 kb/s
Channel(s) : 2 channels
Channel positions : Front: L R
Sampling rate : 48.0 kHz
Frame rate : 31.250 FPS (1536 spf)
Bit depth : 16 bits
Compression mode : Lossy
Stream size : 130 MiB (6%)
Language : English
Default : Yes
Forced : No

Text
ID : 3
Format : PGS
Muxing mode : zlib
Codec ID : S_HDMV/PGS
Codec ID/Info : Picture based subtitle format used on BDs/HD-DVDs
Duration : 1 h 32 min
Bit rate : 23.0 kb/s
Count of elements : 2110
Stream size : 15.2 MiB (1%)
Language : English
Default : Yes
Forced : No

Menu
00:00:00.000 : en:00:00:00.000
00:05:59.958 : en:00:05:59.958
00:15:52.667 : en:00:15:52.667
00:20:47.875 : en:00:20:47.875
00:26:46.042 : en:00:26:46.042
00:34:58.125 : en:00:34:58.125
00:42:20.792 : en:00:42:20.792
00:46:34.042 : en:00:46:34.042
00:52:00.083 : en:00:52:00.083
01:06:44.833 : en:01:06:44.833
01:12:43.667 : en:01:12:43.667
01:19:11.250 : en:01:19:11.250


Many Thanks to Original uploader.


For More Rare Movies Check out my blog!


Download Links :

No Mirrors Please