Pee-wee's Big Adventure (1985)

Pee-wee's Big Adventure (1985)

Pee-wee's Big Adventure (1985)
BDRip | MKV | 1908x1080 | English | H265 @ 3859 kbps | DTS @ 1509 kbps | 1 h 31 min | 3.44 GiB
Subtitles: English
Genre: Adventure, Comedy

The eccentric and childish Pee-wee Herman embarks on a big adventure when his beloved bicycle is stolen. Armed with information from a fortune-teller and a relentless obsession with his prized possession, Pee-wee encounters a host of odd characters and bizarre situations as he treks across the country to recover his bike.

bb4ec03fae6049f4bf44bd568b58e74b.mkv (3.4 GB)



General
Unique ID : 218295869808819644366265798862066191766 (0xA43A41576A0F69EACB1DFE0D11A08D96)
Complete name : ./bb4ec03fae6049f4bf44bd568b58e74b.mkv
Format : Matroska
Format version : Version 4 / Version 2
File size : 3.44 GiB
Duration : 1 h 31 min
Overall bit rate : 5 380 kb/s
Encoded date : UTC 2019-08-29 02:57:44
Writing application : mkvmerge v37.0.0 ('Leave It') 64-bit
Writing library : libebml v1.3.9 + libmatroska v1.5.2

Video
ID : 1
Format : HEVC
Format/Info : High Efficiency Video Coding
Format profile : Main 10@L4@Main
Codec ID : V_MPEGH/ISO/HEVC
Duration : 1 h 31 min
Bit rate : 3 860 kb/s
Width : 1 908 pixels
Height : 1 080 pixels
Display aspect ratio : 16:9
Frame rate mode : Constant
Frame rate : 23.976 (24000/1001) FPS
Color space : YUV
Chroma subsampling : 4:2:0
Bit depth : 10 bits
Bits/(Pixel*Frame) : 0.078
Stream size : 2.47 GiB (72%)
Writing library : x265 2.9:[Windows][GCC 7.1.0][64 bit] 10bit
Encoding settings : cpuid=1111039 / frame-threads=4 / numa-pools=16 / wpp / no-pmode / no-pme / no-psnr / no-ssim / log-level=2 / input-csp=1 / input-res=1908x1080 / interlace=0 / total-frames=0 / level-idc=0 / high-tier=1 / uhd-bd=0 / ref=3 / no-allow-non-conformance / no-repeat-headers / annexb / no-aud / no-hrd / info / hash=0 / no-temporal-layers / open-gop / min-keyint=24 / keyint=240 / gop-lookahead=0 / bframes=4 / b-adapt=2 / b-pyramid / bframe-bias=0 / rc-lookahead=20 / lookahead-slices=6 / scenecut=40 / radl=0 / no-intra-refresh / ctu=64 / min-cu-size=8 / no-rect / no-amp / max-tu-size=32 / tu-inter-depth=1 / tu-intra-depth=1 / limit-tu=0 / rdoq-level=0 / dynamic-rd=0.00 / no-ssim-rd / signhide / no-tskip / nr-intra=0 / nr-inter=0 / no-constrained-intra / strong-intra-smoothing / max-merge=2 / limit-refs=3 / no-limit-modes / me=1 / subme=2 / merange=57 / temporal-mvp / weightp / no-weightb / no-analyze-src-pics / deblock=0:0 / sao / no-sao-non-deblock / rd=3 / no-early-skip / rskip / no-fast-intra / no-tskip-fast / no-cu-lossless / no-b-intra / no-splitrd-skip / rdpenalty=0 / psy-rd=2.00 / psy-rdoq=0.00 / no-rd-refine / no-lossless / cbqpoffs=0 / crqpoffs=0 / rc=crf / crf=23.0 / qcomp=0.60 / qpstep=4 / stats-write=0 / stats-read=0 / ipratio=1.40 / pbratio=1.30 / aq-mode=1 / aq-strength=1.00 / cutree / zone-count=0 / no-strict-cbr / qg-size=32 / no-rc-grain / qpmax=69 / qpmin=0 / no-const-vbv / sar=255 / sar-width / : / sar-height=160:159 / overscan=0 / videoformat=5 / range=0 / colorprim=1 / transfer=1 / colormatrix=1 / chromaloc=0 / display-window=0 / max-cll=0,0 / min-luma=0 / max-luma=1023 / log2-max-poc-lsb=8 / vui-timing-info / vui-hrd-info / slices=1 / no-opt-qp-pps / no-opt-ref-list-length-pps / no-multi-pass-opt-rps / scenecut-bias=0.05 / no-opt-cu-delta-qp / no-aq-motion / no-hdr / no-hdr-opt / no-dhdr10-opt / no-idr-recovery-sei / analysis-reuse-level=5 / scale-factor=0 / refine-intra=0 / refine-inter=0 / refine-mv=0 / no-limit-sao / ctu-info=0 / no-lowpass-dct / refine-mv-type=0 / copy-pic=1 / max-ausize-factor=1.0 / no-dynamic-refine / no-single-sei
Default : Yes
Forced : No
Color range : Limited
Color primaries : BT.709
Transfer characteristics : BT.709
Matrix coefficients : BT.709

Audio
ID : 2
Format : DTS
Format/Info : Digital Theater Systems
Mode : 16
Format settings, Endianness : Big
Codec ID : A_DTS
Duration : 1 h 31 min
Bit rate mode : Constant
Bit rate : 1 509 kb/s
Channel(s) : 6 channels
Channel positions : Front: L C R, Side: L R, LFE
Sampling rate : 48.0 kHz
Frame rate : 93.750 FPS (512 SPF)
Bit depth : 24 bits
Compression mode : Lossy
Stream size : 987 MiB (28%)
Title : Surround
Language : English
Default : Yes
Forced : No

Text
ID : 3
Format : PGS
Muxing mode : zlib
Codec ID : S_HDMV/PGS
Codec ID/Info : Picture based subtitle format used on BDs/HD-DVDs
Duration : 1 h 29 min
Bit rate : 22.2 kb/s
Count of elements : 1818
Stream size : 14.2 MiB (0%)
Language : English
Default : No
Forced : No

Menu
00:00:00.000 : :Chapter 1
00:01:06.066 : :Chapter 2
00:02:48.043 : :Chapter 3
00:08:21.543 : :Chapter 4
00:13:18.798 : :Chapter 5
00:16:18.436 : :Chapter 6
00:18:38.451 : :Chapter 7
00:21:15.107 : :Chapter 8
00:25:43.876 : :Chapter 9
00:30:11.935 : :Chapter 10
00:33:01.563 : :Chapter 11
00:37:49.017 : :Chapter 12
00:40:10.408 : :Chapter 13
00:46:25.408 : :Chapter 14
00:49:06.944 : :Chapter 15
00:50:00.748 : :Chapter 16
00:51:20.828 : :Chapter 17
00:52:24.767 : :Chapter 18
00:55:00.214 : :Chapter 19
00:59:07.711 : :Chapter 20
01:01:36.443 : :Chapter 21
01:06:31.905 : :Chapter 22
01:09:00.637 : :Chapter 23
01:12:13.788 : :Chapter 24
01:15:59.013 : :Chapter 25
01:17:30.104 : :Chapter 26
01:20:56.143 : :Chapter 27
01:28:06.615 : :Chapter 28





Pee-wee's Big Adventure (1985)


Pee-wee's Big Adventure (1985)


Pee-wee's Big Adventure (1985)


Pee-wee's Big Adventure (1985)


Pee-wee's Big Adventure (1985)