PBS - Battle Line: Collection One 1939 - 1942 (1963)

PBS - Battle Line: Collection One 1939 - 1942 (1963)

PBS - Battle Line: Collection One 1939 - 1942 (1963)
DVDRip | 640 x 488 | .AVI/XviD @ 1624 Kbps | 5x~100mn | 6.90 GB
Audio: English AC-3 384 Kbps, 6 channels | Subs: None
Genre: Documentary, War

There are two sides in every war and millions of different stories to share from each battle fought. The Battle of Britain, Malta and Pearl Harbor are just a few of the events captured in this collection. Relive and remember the extraordinary events of World War II from the point of view of both the victor and the vanquished. Each episode of Battle Line tells the story of one battle by combining the personal remembrances of two soldiers, one from each side of the conflict. These authentically produced television shows, narrated by award winning reporter Jim Bishop, tell the saga of bloody World War II conflicts through the eyes of the combatants. German, Italian, Japanese and American men of war tell their personal stories of crucial battles such as Dunkirk, Tobruk, Dieppe, El Alamein, Midway and many other immortal places of history and glory. All the episodes feature original, rare film footage from axis and allied cameramen.
PART ONE
FALL OF POLAND - INVASION OF NORWAY - DUNKIRK - BATTLE FOR PARIS
PART TWO
BATTLE OF BRITAIN - MALTA - COMMERCE RAIDERS - CRETE
PART THREE
PEARL HARBOR - BATTLE OF THE ATLANTIC - FALL OF SINGAPORE - FALL OF THE PHILIPPINES
PART FOUR
DIEPPE - MIDWAY - GUADALCANAL - TARAWA
PART FIVE
OPERATION TORCH - TOBRUK - EL ALAMEIN

also You can find my last: World War II

General
Complete name : PBS.Battle.Line.Collection.One.1939.1942.1of5.avi
Format : AVI
Format/Info : Audio Video Interleave
File size : 1.45 GiB
Duration : 1 h 42 min
Overall bit rate : 2 020 kb/s

Video
ID : 0
Format : MPEG-4 Visual
Format profile : Advanced Simple@L5
Format settings, BVOP : 2
Format settings, QPel : Yes
Format settings, GMC : No warppoints
Format settings, Matrix : Custom
Codec ID : XVID
Codec ID/Hint : XviD
Duration : 1 h 42 min
Bit rate : 1 624 kb/s
Width : 640 pixels
Height : 488 pixels
Display aspect ratio : 4:3
Frame rate : 29.970 (30000/1001) FPS
Color space : YUV
Chroma subsampling : 4:2:0
Bit depth : 8 bits
Scan type : Progressive
Compression mode : Lossy
Bits/(Pixel*Frame) : 0.174
Stream size : 1.17 GiB (80%)
Writing library : XviD 1.2.1 (UTC 2008-12-04)

Audio
ID : 1
Format : AC-3
Format/Info : Audio Coding 3
Format settings, Endianness : Big
Codec ID : 2000
Duration : 1 h 42 min
Source duration : 1 h 42 min
Bit rate mode : Constant
Bit rate : 384 kb/s
Channel(s) : 6 channels
Channel positions : Front: L C R, Side: L R, LFE
Sampling rate : 48.0 kHz
Frame rate : 31.250 FPS (1536 spf)
Bit depth : 16 bits
Compression mode : Lossy
Stream size : 283 MiB (19%)
Alignment : Aligned on interleaves
Interleave, duration : 33 ms (1.00 video frame)
Service kind : Complete Main
Screenshots

PBS - Battle Line: Collection One 1939 - 1942 (1963)

PBS - Battle Line: Collection One 1939 - 1942 (1963)

PBS - Battle Line: Collection One 1939 - 1942 (1963)

PBS - Battle Line: Collection One 1939 - 1942 (1963)

PBS - Battle Line: Collection One 1939 - 1942 (1963)

Welcome to my blog - daily update!

PBS - Battle Line: Collection One 1939 - 1942 (1963)