The Open Road (1926)

The Open Road (1926)

The Open Road (1926)
DVDRip | MKV | AVC 708x572, ~ 1.9 Mbps | 1hr 02mn | 0.9 GB
English (Score): Dolby AC3, 2 ch
Subtitle: English
Genre: Documentary
IMDB Rating: 7.7/10 (113 votes)


Director: Claude Friese-Greene

Travelogue filmed between 1924 and 1926 on a motor journey between Land's End and John O'Groats using Friese-Green's two colour additive process.




General
Unique ID : 224510574192346277773545922990225957140 (0xA8E729ECA000F5E981C15BA4A1372114)
Complete name : L:\OpenRoad.26.Dr\OpenRoad.26.Dr.mkv
Format : Matroska
Format version : Version 4 / Version 2
File size : 929 MiB
Duration : 1 h 2 min
Overall bit rate : 2 078 kb/s
Movie name : Release RSU75
Encoded date : UTC 2017-11-18 05:28:56
Writing application : mkvmerge v6.6.0 ('The Edge Of The In Between') built on Dec 1 2013 17:55:00
Writing library : libebml v1.3.0 + libmatroska v1.4.1

Video
ID : 1
Format : AVC
Format/Info : Advanced Video Codec
Format profile : High@L3
Format settings : CABAC / 4 Ref Frames
Format settings, CABAC : Yes
Format settings, RefFrames : 4 frames
Codec ID : V_MPEG4/ISO/AVC
Duration : 1 h 2 min
Bit rate : 1 900 kb/s
Width : 708 pixels
Height : 572 pixels
Display aspect ratio : 4:3
Frame rate mode : Constant
Frame rate : 25.000 FPS
Color space : YUV
Chroma subsampling : 4:2:0
Bit depth : 8 bits
Scan type : Progressive
Bits/(Pixel*Frame) : 0.188
Stream size : 825 MiB (89%)
Writing library : x264 core 144 r2533 c8a773e
Encoding settings : cabac=1 / ref=4 / deblock=1:0:0 / analyse=0x3:0x113 / me=umh / subme=8 / psy=1 / psy_rd=1.00:0.00 / mixed_ref=1 / me_range=24 / chroma_me=1 / trellis=1 / 8x8dct=1 / cqm=0 / deadzone=21,11 / fast_pskip=1 / chroma_qp_offset=-2 / threads=3 / lookahead_threads=1 / sliced_threads=0 / nr=0 / decimate=1 / interlaced=0 / bluray_compat=0 / constrained_intra=0 / bframes=3 / b_pyramid=0 / b_adapt=2 / b_bias=0 / direct=3 / weightb=1 / open_gop=0 / weightp=2 / keyint=250 / keyint_min=25 / scenecut=40 / intra_refresh=0 / rc_lookahead=40 / rc=abr / mbtree=1 / bitrate=1900 / ratetol=1.0 / qcomp=0.60 / qpmin=10 / qpmax=51 / qpstep=4 / ip_ratio=1.41 / aq=1:1.00
Language : English
Default : Yes
Forced : No

Audio
ID : 2
Format : AC-3
Format/Info : Audio Coding 3
Format settings, Endianness : Big
Codec ID : A_AC3
Duration : 1 h 2 min
Bit rate mode : Constant
Bit rate : 192 kb/s
Channel(s) : 2 channels
Channel positions : Front: L R
Sampling rate : 48.0 kHz
Frame rate : 31.250 FPS (1536 SPF)
Bit depth : 16 bits
Compression mode : Lossy
Delay relative to video : -40 ms
Stream size : 85.9 MiB (9%)
Language : English
Service kind : Complete Main
Default : Yes
Forced : No

Menu
00:00:00.000 : en:Chapter 01
00:01:31.360 : en:Chapter 02
00:06:20.160 : en:Chapter 03
00:08:35.680 : en:Chapter 04
00:15:16.440 : en:Chapter 05
00:20:13.640 : en:Chapter 06
00:26:49.440 : en:Chapter 07
00:35:36.240 : en:Chapter 08
00:42:54.720 : en:Chapter 09
00:51:48.320 : en:Chapter 10



Screenshots (click to enlarge to original size):

The Open Road (1926)

The Open Road (1926)

The Open Road (1926)


The Open Road (1926)




–––––––––––––––––––––––––––––––––––––––-
>>> "Documentary" <<<OR >>> "Score" <<<
–––––––––––––––––––––––––––––––––––––––-
>>> Visit Blog RSU75 Here <<<
–––––––––––––––––––––––––––––––––––––––-