One of Our Aircraft Is Missing (1942)

One of Our Aircraft Is Missing (1942)

One of Our Aircraft Is Missing (1942)
BDRip 1080p | MKV | 1472x1080 | AVC@10.1 Mb/s | English FLAC@507 kb/s | 2 channels | 1 h 42 min | 7.64 GB
Genre: Action, Adventure, Drama

When Nazi anti-aircraft fire damages a British bomber, its crew bails out and seeks help from the Dutch underground.



General
Unique ID : 221779897246903715190923714018291074284 (0xA6D94128084159E4990FB0BE8A61C4EC)
Complete name : D:\A\One.of.Our.Aircraft.Is.Missing.1942.1080p.BluRay.x264-SADPANDA.mkv
Format : Matroska
Format version : Version 4 / Version 2
File size : 7.65 GiB
Duration : 1 h 42 min
Overall bit rate mode : Variable
Overall bit rate : 10.6 Mb/s
Encoded date : UTC 2017-01-04 21:25:23
Writing application : mkvmerge v9.6.0 ('Slave To Your Mind') 64bit
Writing library : libebml v1.3.4 + libmatroska v1.4.5

Video
ID : 1
Format : AVC
Format/Info : Advanced Video Codec
Format profile : High@L4.1
Format settings, CABAC : Yes
Format settings, ReFrames : 5 frames
Codec ID : V_MPEG4/ISO/AVC
Duration : 1 h 42 min
Bit rate : 10.1 Mb/s
Width : 1 472 pixels
Height : 1 080 pixels
Display aspect ratio : 4:3
Frame rate mode : Constant
Frame rate : 23.976 (24000/1001) FPS
Color space : YUV
Chroma subsampling : 4:2:0
Bit depth : 8 bits
Scan type : Progressive
Bits/(Pixel*Frame) : 0.266
Stream size : 7.28 GiB (95%)
Writing library : x264 core 148 r2744 b97ae06
Encoding settings : cabac=1 / ref=5 / deblock=1:-3:-3 / analyse=0x3:0x113 / me=umh / subme=8 / psy=1 / psy_rd=1.00:0.25 / mixed_ref=1 / me_range=24 / chroma_me=1 / trellis=1 / 8x8dct=1 / cqm=0 / deadzone=21,11 / fast_pskip=1 / chroma_qp_offset=-4 / threads=24 / lookahead_threads=4 / sliced_threads=0 / nr=0 / decimate=1 / interlaced=0 / bluray_compat=0 / constrained_intra=0 / bframes=3 / b_pyramid=2 / b_adapt=1 / b_bias=0 / direct=3 / weightb=1 / open_gop=0 / weightp=2 / keyint=240 / keyint_min=24 / scenecut=40 / intra_refresh=0 / rc_lookahead=50 / rc=2pass / mbtree=1 / bitrate=10126 / ratetol=1.0 / qcomp=0.60 / qpmin=0 / qpmax=69 / qpstep=4 / cplxblur=20.0 / qblur=0.5 / ip_ratio=1.40 / aq=1:0.75
Default : Yes
Forced : No

Audio
ID : 2
Format : FLAC
Format/Info : Free Lossless Audio Codec
Codec ID : A_FLAC
Duration : 1 h 42 min
Bit rate mode : Variable
Bit rate : 507 kb/s
Channel(s) : 2 channels
Channel positions : Front: L R
Sampling rate : 48.0 kHz
Frame rate : 11.719 FPS (4096 spf)
Bit depth : 24 bits
Stream size : 373 MiB (5%)
Writing library : libFLAC 1.2.1 (UTC 2007-09-17)
Language : English
Default : Yes
Forced : No

Menu
00:00:00.000 : en:00:00:00.000
00:00:10.926 : en:00:00:10.926
00:12:33.418 : en:00:12:33.418
00:28:27.704 : en:00:28:27.704
00:41:54.510 : en:00:41:54.510
00:54:54.123 : en:00:54:54.123
01:06:30.902 : en:01:06:30.902
01:17:53.335 : en:01:17:53.335
01:30:47.483 : en:01:30:47.483
01:43:06.762 : en:01:43:06.762


BDRip 1080p Screenshots

One of Our Aircraft Is Missing (1942)

One of Our Aircraft Is Missing (1942)

One of Our Aircraft Is Missing (1942)

One of Our Aircraft Is Missing (1942)

One of Our Aircraft Is Missing (1942)


Come Visit My Blog (•‿•)