Oliver! (1968)

Oliver! (1968)

Oliver! (1968)
BDRip 1080p | MKV | 1920x816 | AVC@8035 kb/s | English DTS@1509 kb/s
6 channels | 2 h 33 min | 10.2 GB
Genre: Drama, Family, Musical

Young Oliver Twist runs away from an orphanage and meets a group of boys trained to be pickpockets by an elderly mentor.

IMDB - Won 5 Oscars. Another 7 wins & 25 nominations.


General
Oliver.1968.1080p.BluRay.x264.DTS-FGT\Oliver.1968.1080p.BluRay.x264.DTS-FGT.mkv
Format : Matroska
Format version : Version 4 / Version 2
File size : 10.2 GiB
Duration : 2 h 33 min
Overall bit rate : 9 546 kb/s
Movie name : Oliver.1968.1080p.BluRay.x264.DTS-FGT
Encoded date : UTC 2016-08-02 08:43:47
Writing application : mkvmerge v9.3.1 ('Mask Machine') 64bit
Writing library : libebml v1.3.4 + libmatroska v1.4.5
Cover : Yes
Attachments : small_cover.jpg / small_cover_land.jpg / cover.jpg / cover_land.jpg

Video
ID : 1
Format : AVC
Format/Info : Advanced Video Codec
Format profile : High@L4.1
Format settings, CABAC : Yes
Format settings, ReFrames : 5 frames
Codec ID : V_MPEG4/ISO/AVC
Duration : 2 h 33 min
Bit rate : 8 035 kb/s
Width : 1 920 pixels
Height : 816 pixels
Display aspect ratio : 2.35:1
Frame rate mode : Constant
Frame rate : 23.976 (24000/1001) FPS
Color space : YUV
Chroma subsampling : 4:2:0
Bit depth : 8 bits
Scan type : Progressive
Bits/(Pixel*Frame) : 0.214
Stream size : 8.42 GiB (82%)
Writing library : x264 core 133 r2334 a3ac64b
Encoding settings : cabac=1 / ref=5 / deblock=1:0:0 / analyse=0x3:0x133 / me=umh / subme=7 / psy=1 / psy_rd=1.00:0.00 / mixed_ref=1 / me_range=16 / chroma_me=1 / trellis=1 / 8x8dct=1 / cqm=0 / deadzone=21,11 / fast_pskip=0 / chroma_qp_offset=-2 / threads=12 / lookahead_threads=2 / sliced_threads=0 / nr=0 / decimate=1 / interlaced=0 / bluray_compat=0 / constrained_intra=0 / bframes=3 / b_pyramid=2 / b_adapt=1 / b_bias=0 / direct=3 / weightb=1 / open_gop=0 / weightp=2 / keyint=240 / keyint_min=23 / scenecut=40 / intra_refresh=0 / rc_lookahead=40 / rc=2pass / mbtree=1 / bitrate=8035 / ratetol=1.0 / qcomp=0.60 / qpmin=0 / qpmax=69 / qpstep=4 / cplxblur=20.0 / qblur=0.5 / vbv_maxrate=50000 / vbv_bufsize=62500 / nal_hrd=none / ip_ratio=1.40 / aq=1:1.00
Default : Yes
Forced : No

Audio
ID : 2
Format : DTS
Format/Info : Digital Theater Systems
Mode : 16
Format settings, Endianness : Big
Codec ID : A_DTS
Duration : 2 h 33 min
Bit rate mode : Constant
Bit rate : 1 509 kb/s
Channel(s) : 6 channels
Channel positions : Front: L C R, Side: L R, LFE
Sampling rate : 48.0 kHz
Frame rate : 93.750 FPS (512 spf)
Bit depth : 24 bits
Compression mode : Lossy
Stream size : 1.62 GiB (16%)
Language : English
Default : No
Forced : No

Menu
00:00:00.000 : de:00:00:00.000
00:15:18.376 : de:00:15:18.376
00:24:35.724 : de:00:24:35.724
00:30:43.592 : de:00:30:43.592
00:40:10.283 : de:00:40:10.283
00:52:32.900 : de:00:52:32.900
01:06:40.038 : de:01:06:40.038
01:16:59.031 : de:01:16:59.031
01:26:13.794 : de:01:26:13.794
01:29:30.115 : de:01:29:30.115
01:41:50.104 : de:01:41:50.104
01:57:06.353 : de:01:57:06.353
02:05:56.132 : de:02:05:56.132
02:12:48.085 : de:02:12:48.085
02:18:53.408 : de:02:18:53.408
02:25:10.201 : de:02:25:10.201


BDRip 1080p Screenshots

Oliver! (1968)

Oliver! (1968)

Oliver! (1968)

Oliver! (1968)

Oliver! (1968)

Oliver! (1968)


Come Visit My Blog (•‿•)