Oklahoma Raiders (1944)

Oklahoma Raiders (1944)

Oklahoma Raiders (1944)
WEB-DL | MKV | 1920x1080 | English | H264 @ 10264 kbps | E-AC-3 @ 224 kbps | 56 min 39 s | 4.15 GiB
Subtitles: English
Genre: Music, Western

In this western, two cowboys go to buy fresh horses for the cavalry and end up taking on two badguys and a female vigilante.

Oklahoma.Raiders.1944.1080p.AMZN.WEB-DL.DDP2.0.H.264-SiGMA_Track03.srt (57.0 KB)
Oklahoma.Raiders.1944.1080p.AMZN.WEB-DL.DDP2.0.H.264-SiGMA.mkv (4.2 GB)



General
Unique ID : 23073600217617277761608163100743035745 (0x115BD0527854551D66CD3DEE5DADEB61)
Complete name : ./Oklahoma.Raiders.1944.1080p.AMZN.WEB-DL.DDP2.0.H.264-SiGMA.mkv
Format : Matroska
Format version : Version 4 / Version 2
File size : 4.15 GiB
Duration : 56 min 39 s
Overall bit rate : 10.5 Mb/s
Encoded date : UTC 2019-01-26 20:57:33
Writing application : mkvmerge v30.1.0 ('Forever And More') 64-bit
Writing library : libebml v1.3.6 + libmatroska v1.4.9

Video
ID : 1
Format : AVC
Format/Info : Advanced Video Codec
Format profile : High@L4
Format settings : CABAC / 4 Ref Frames
Format settings, CABAC : Yes
Format settings, RefFrames : 4 frames
Codec ID : V_MPEG4/ISO/AVC
Duration : 56 min 39 s
Bit rate : 10.3 Mb/s
Width : 1 920 pixels
Height : 1 080 pixels
Display aspect ratio : 16:9
Frame rate mode : Constant
Frame rate : 23.976 (24000/1001) FPS
Color space : YUV
Chroma subsampling : 4:2:0
Bit depth : 8 bits
Scan type : Progressive
Bits/(Pixel*Frame) : 0.206
Stream size : 4.06 GiB (98%)
Default : Yes
Forced : No
Color range : Limited
Color primaries : BT.709
Transfer characteristics : BT.709
Matrix coefficients : BT.709

Audio
ID : 2
Format : E-AC-3
Format/Info : Enhanced Audio Coding 3
Format settings, Endianness : Big
Codec ID : A_EAC3
Duration : 56 min 39 s
Bit rate mode : Constant
Bit rate : 224 kb/s
Channel(s) : 2 channels
Channel positions : Front: L R
Sampling rate : 48.0 kHz
Frame rate : 187.500 FPS (256 SPF)
Compression mode : Lossy
Stream size : 90.8 MiB (2%)
Language : English
Service kind : Complete Main
Default : Yes
Forced : No

Text
ID : 3
Format : UTF-8
Codec ID : S_TEXT/UTF8
Codec ID/Info : UTF-8 Plain Text
Duration : 55 min 58 s
Bit rate : 64 b/s
Count of elements : 780
Stream size : 26.6 KiB (0%)
Title : English (SDH)
Language : English
Default : No
Forced : No





Oklahoma Raiders (1944)


Oklahoma Raiders (1944)


Oklahoma Raiders (1944)


Oklahoma Raiders (1944)


Oklahoma Raiders (1944)