Oktyabr / October / Октябрь (1927) [ReUp]

Oktyabr / October / Октябрь (1927) [ReUp]

Oktyabr / October / Октябрь (1927)
DVD Video, DVD9 | 1hr 55mn | PAL 4:3 | 720x576 | 7.50 Gb
Russian: Dolby AC3, 2 ch; Subtitle: Russian intertitles + English subs
DVD Video, DVD5 | 1hr 55mn | PAL 4:3 | 720x576 | 3.88 Gb
Russian: Dolby AC3, 2 ch; Subtitle: English, French, German, Spanish, Italian, Portuguese
–––––––––––––––––––––––––––––
DVDRip | Avi | XVID, 640x480, ~ 1.5 Kbps | 01hr 55mn | 1.37 GB
Russian: AC3, 2 ch, 256 kbps; Russian intertitles + English subs (Hardcoded)
–––––––––––––––––––––––––––––
DVDRip | MKV | AVC, 664x552, ~ 1.8 Kbps | 01hr 55mn | 1.61 GB
Russian: AC3, 2 ch, 192 kbps; Russian intertitles + Subs: English, French, German, Spanish, Italian, Portuguese
–––––––––––––––––––––––––––––
Genre: Drama | History
imdb 7.6/10 (4.077 votes)
Кинопоиск 7.436/10 (483 votes)


Director: Grigori Aleksandrov (as G. Aleksandrov), Sergei M. Eisenstein (as S. M. Eisenstein)
Writers: Sergei M. Eisenstein, Grigori Aleksandrov
Stars: Boris Livanov, Nikolay Popov, Vasili Nikandrov

Country: Soviet Union

A film epic about the 1917 Revolution in Petrograd. The Revolution’s headquarters at the Smolny Palace, where the plan for seizing power in Russia was masterminded; the historic salvo from the Aurora battle cruiser, a signal to revolutionary soldier and sailor detachments to begin storming the last stronghold of the Provisional Government, the Winter Palace; Lenin’s historic speech at the Congress of Soviets, proclaiming the dawn of a new era in Russia – these are some of the sequences that go before the viewer.
The film was commissioned by the Presidium of the Central Executive Committee of the USSR to commemorate the 10th anniversary of the October Revolution. Its premiere took place at the Bolshoi Theatre on November 7, 1927.
One of the most powerful films of the Soviet revolutionary cinema! To this day the massive scale of events and the filming technique used by Eisenstein make one perceive it as a documentary representation of the era. To enhance the realistic effect, thousands of extras had been involved in the filming.
The first portrayal of Lenin in a feature film!


Название: Октябрь
Год выпуска: 1927
жанр: Драма, история
Выпущено: Россия, СССР
Режиссер: Сергей Эйзенштейн, Григорий Александров
В ролях: Владимир Попов, Василий Никандров, Лященко, Чибисов, Борис Ливанов, Михолыев, Н. Подвойский

О фильме: Фильм был поставлен по заданию Октябрьской юбилейной комиссии при Президиуме ЦИК СССР и посвящался Великой Октябрьской социалистической революции. События 1917 года, итогом которых стал залп крейсера «Аврора» и штурм Зимнего дворца, были восстановлены с максимальной точностью.

Издание от Ruscico: Disk info
Серия: коллекция «Киноакадемия»



DVD9 disc made in Hyperkino format with interactive academic commentaries.



Title: October.27.D9
Size: 7.50 Gb ( 7 866 258,00 KBytes ) - DVD-9
Enabled regions: 1, 2, 3, 4, 5, 6, 7, 8

VTS_01 :
Play Length: 00:00:25
Video: PAL 4:3 (720x576) VBR

VTS_02 :
Play Length: 00:00:21
Video: PAL 4:3 (720x576) VBR
Audio:
Russian (Dolby AC3, 6 ch)

VTS_03 :
Play Length: 00:00:11
Video: PAL 4:3 (720x576) VBR

VTS_04 :
Play Length: 01:55:21
Video: PAL 4:3 (720x576) VBR
Audio:
Russian (Dolby AC3, 2 ch)
Subtitles:
English

VTS_05 :
Play Length: 01:55:24
Video: PAL 4:3 (720x576) VBR
Audio:
Russian (Dolby AC3, 2 ch)
Subtitles:
English

VTS_06 :
Play Length: 00:03:33
Video: PAL 4:3 (720x576) VBR
Subtitles:
English

VTS_07 :
Play Length: 00:00:10
Video: PAL 4:3 (720x576) VBR
Subtitles:
English

VTS_08 :
Play Length: 00:00:05
Video: PAL 4:3 (720x576) VBR
Subtitles:
English

VTS_09 :
Play Length: 00:00:12
Video: PAL 4:3 (720x576) VBR
Subtitles:
English

VTS_10 :
Play Length: 00:00:26
Video: PAL 4:3 (720x576) VBR
Subtitles:
English

VTS_11 :
Play Length: 00:00:11
Video: PAL 4:3 (720x576) VBR
Subtitles:
English

VTS_12 :
Play Length: 00:01:16
Video: PAL 4:3 (720x576) VBR
Subtitles:
English

VTS_13 :
Play Length: 00:00:12
Video: PAL 4:3 (720x576) VBR
Subtitles:
English



Screenshots DVD9(click to enlarge to original size):

Oktyabr / October / Октябрь (1927) [ReUp]

Oktyabr / October / Октябрь (1927) [ReUp]

Oktyabr / October / Октябрь (1927) [ReUp]

Oktyabr / October / Октябрь (1927) [ReUp]

Oktyabr / October / Октябрь (1927) [ReUp]

Oktyabr / October / Октябрь (1927) [ReUp]

Oktyabr / October / Октябрь (1927) [ReUp]

Oktyabr / October / Октябрь (1927) [ReUp]

Oktyabr / October / Октябрь (1927) [ReUp]




DVD5 disc contains the film with optional subtitles.



Title: October.27.D5
Size: 3.88 Gb ( 4 072 420,00 KBytes ) - DVD-5
Enabled regions: 1, 2, 3, 4, 5, 6, 7, 8

VTS_01 :
Play Length: 00:00:25
Video: PAL 4:3 (720x576) VBR

VTS_02 :
Play Length: 00:00:21
Video: PAL 4:3 (720x576) VBR
Audio:
Russian (Dolby AC3, 6 ch)

VTS_03 :
Play Length: 01:55:21
Video: PAL 4:3 (720x576) VBR
Audio:
Russian (Dolby AC3, 2 ch)
Subtitles:
English
Francais
Deutsch
Espanol
Italiano
Portugues



Screenshots DVD5(click to enlarge to original size):

Oktyabr / October / Октябрь (1927) [ReUp]

Oktyabr / October / Октябрь (1927) [ReUp]

Oktyabr / October / Октябрь (1927) [ReUp]

Oktyabr / October / Октябрь (1927) [ReUp]

Oktyabr / October / Октябрь (1927) [ReUp]



Thanks to original uploader






General
Complete name : D:\October.27.Dr.avi
Format : AVI
Format/Info : Audio Video Interleave
File size : 1.37 GiB
Duration : 1h 55mn
Overall bit rate : 1 699 Kbps
Director : Release RSU75 for Avaxhm.con
Writing application : VirtualDubMod 1.5.4.1 (build 2178/release)
Writing library : VirtualDub build 32507/release

Video
ID : 0
Format : MPEG-4 Visual
Format profile : Advanced Simple@L5
Format settings, BVOP : 1
Format settings, QPel : No
Format settings, GMC : No warppoints
Format settings, Matrix : Custom
Codec ID : XVID
Codec ID/Hint : XviD
Duration : 1h 55mn
Bit rate : 1 497 Kbps
Width : 640 pixels
Height : 480 pixels
Display aspect ratio : 4:3
Frame rate : 25.000 fps
Color space : YUV
Chroma subsampling : 4:2:0
Bit depth : 8 bits
Scan type : Progressive
Compression mode : Lossy
Bits/(Pixel*Frame) : 0.195
Stream size : 1.21 GiB (88%)
Writing library : XviD 1.2.1 (UTC 2008-12-04)

Audio
ID : 1
Format : AC-3
Format/Info : Audio Coding 3
Mode extension : CM (complete main)
Format settings, Endianness : Big
Codec ID : 2000
Duration : 1h 55mn
Bit rate mode : Constant
Bit rate : 192 Kbps
Channel(s) : 2 channels
Channel positions : Front: L R
Sampling rate : 48.0 KHz
Bit depth : 16 bits
Compression mode : Lossy
Stream size : 158 MiB (11%)
Alignment : Split accross interleaves
Interleave, duration : 40 ms (1.00 video frame)
Interleave, preload duration : 500 ms



Screenshots DVDRip(click to enlarge to original size):

Oktyabr / October / Октябрь (1927) [ReUp]

Oktyabr / October / Октябрь (1927) [ReUp]

Oktyabr / October / Октябрь (1927) [ReUp]

Oktyabr / October / Октябрь (1927) [ReUp]

Oktyabr / October / Октябрь (1927) [ReUp]






General
Unique ID : 213926873980702509461400490776537517063 (0xA0F0D1375A2FDC13BE892F45388ACC07)
Complete name : M:\October.27.Dr.MKV\October.27.Dr.MKV.mkv
Format : Matroska
Format version : Version 4 / Version 2
File size : 1.61 GiB
Duration : 1 h 55 min
Overall bit rate : 1 999 kb/s
Movie name : Release RSU75
Encoded date : UTC 2017-06-27 03:21:52
Writing application : mkvmerge v6.6.0 ('The Edge Of The In Between') built on Dec 1 2013 17:55:00
Writing library : libebml v1.3.0 + libmatroska v1.4.1

Video
ID : 1
Format : AVC
Format/Info : Advanced Video Codec
Format profile : Baseline@L3
Format settings, CABAC : No
Format settings, ReFrames : 1 frame
Codec ID : V_MPEG4/ISO/AVC
Duration : 1 h 55 min
Bit rate : 1 800 kb/s
Width : 664 pixels
Height : 552 pixels
Display aspect ratio : 1.283
Frame rate mode : Constant
Frame rate : 25.000 FPS
Color space : YUV
Chroma subsampling : 4:2:0
Bit depth : 8 bits
Scan type : Progressive
Bits/(Pixel*Frame) : 0.196
Stream size : 1.42 GiB (88%)
Writing library : x264 core 144 r2533 c8a773e
Encoding settings : cabac=0 / ref=1 / deblock=1:0:0 / analyse=0x1:0x111 / me=hex / subme=7 / psy=1 / psy_rd=1.00:0.00 / mixed_ref=0 / me_range=16 / chroma_me=1 / trellis=1 / 8x8dct=0 / cqm=0 / deadzone=21,11 / fast_pskip=1 / chroma_qp_offset=-2 / threads=3 / lookahead_threads=1 / sliced_threads=0 / nr=0 / decimate=1 / interlaced=0 / bluray_compat=0 / constrained_intra=0 / bframes=0 / weightp=0 / keyint=250 / keyint_min=25 / scenecut=40 / intra_refresh=0 / rc_lookahead=40 / rc=abr / mbtree=1 / bitrate=1800 / ratetol=1.0 / qcomp=0.60 / qpmin=10 / qpmax=51 / qpstep=4 / ip_ratio=1.41 / aq=1:1.00
Language : English
Default : No
Forced : No

Audio
ID : 2
Format : AC-3
Format/Info : Audio Coding 3
Mode extension : CM (complete main)
Format settings, Endianness : Big
Codec ID : A_AC3
Duration : 1 h 55 min
Bit rate mode : Constant
Bit rate : 192 kb/s
Channel(s) : 2 channels
Channel positions : Front: L R
Sampling rate : 48.0 kHz
Frame rate : 31.250 FPS (1536 spf)
Bit depth : 16 bits
Compression mode : Lossy
Delay relative to video : -5 ms
Stream size : 158 MiB (10%)
Language : Russian
Default : Yes
Forced : No

Text #1
ID : 3
Format : VobSub
Muxing mode : zlib
Codec ID : S_VOBSUB
Codec ID/Info : Picture based subtitle format used on DVDs
Language : English
Default : Yes
Forced : No

Text #2
ID : 4
Format : VobSub
Muxing mode : zlib
Codec ID : S_VOBSUB
Codec ID/Info : Picture based subtitle format used on DVDs
Language : French
Default : No
Forced : No

Text #3
ID : 5
Format : VobSub
Muxing mode : zlib
Codec ID : S_VOBSUB
Codec ID/Info : Picture based subtitle format used on DVDs
Language : German
Default : No
Forced : No

Text #4
ID : 6
Format : VobSub
Muxing mode : zlib
Codec ID : S_VOBSUB
Codec ID/Info : Picture based subtitle format used on DVDs
Language : Spanish
Default : No
Forced : No

Text #5
ID : 7
Format : VobSub
Muxing mode : zlib
Codec ID : S_VOBSUB
Codec ID/Info : Picture based subtitle format used on DVDs
Language : Italian
Default : No
Forced : No

Text #6
ID : 8
Format : VobSub
Muxing mode : zlib
Codec ID : S_VOBSUB
Codec ID/Info : Picture based subtitle format used on DVDs
Language : Portuguese
Default : No
Forced : No




Screenshots DVDRip MKV(click to enlarge to original size):

Oktyabr / October / Октябрь (1927) [ReUp]

Oktyabr / October / Октябрь (1927) [ReUp]

Oktyabr / October / Октябрь (1927) [ReUp]

Oktyabr / October / Октябрь (1927) [ReUp]

Oktyabr / October / Октябрь (1927) [ReUp]




–––––––––––––––––––––––––––––––––––––––-
>>> Другие российские и советские фильмы <<< OR >>> Коллекция «Киноакадемия» <<<
–––––––––––––––––––––––––––––––––––––––-
>>> Visit Blog RSU75 Here <<<
–––––––––––––––––––––––––––––––––––––––-