Oblomov / Neskolko dney iz zhizni I.I. Oblomova / Несколько дней из жизни И. И. Обломова (1980)

Oblomov / Neskolko dney iz zhizni I.I. Oblomova / Несколько дней из жизни И. И. Обломова (1980)

Oblomov / Neskolko dney iz zhizni I.I. Oblomova / Несколько дней из жизни И.И. Обломова (1980)
BDRip 1080p | MKV | AVC, 1512x1080, ~ 3.8 Mbps | 2hr 21mn | 5.69 GB
Russian (Русский): DTS, 6 ch, 1510 kbps \ AC3, 2 ch, 448 kbps
BDRip 720p | MKV | AVC, 1008x720, ~ 2.6 Mbps | 2hr 21mn | 3.28 GB
Russian (Русский): AC3, 6 ch, 448 kbps \ AC3, 2 ch, 256 kbps
Subtitles: English
Genre: Comedy, Drama, History
IMDB Rating: 7.7/10 (1.875 votes)


Director: Nikita Mikhalkov
Writers: Aleksandr Adabashyan (screenplay) (as A. Adabashyan), Ivan Goncharov (novel)
Stars: Oleg Tabakov, Yuriy Bogatyryov, Elena Solovey

Country: Soviet Union (Россия)

St. Petersburg, mid 19th century: the indolent, middle-aged Oblomov lives in a flat with his older servant, Zakhar. He sleeps much of the day, dreaming of his childhood on his parents' estate. His boyhood companion, Stoltz, now an energetic and successful businessman, adds Oblomov to his circle whenever he's in the city, and Oblomov's life changes when Stoltz introduces him to Olga, lovely and cultured. When Stoltz leaves for several months, Oblomov takes a country house near Olga's, and she determines to change him: to turn him into a man of society, action, and culture. Soon, Olga and Oblomov are in love; but where, in the triangle, does that leave Stoltz?

Extras:
- None




General
Unique ID : 212481715634863314115814736809382110229 (0x9FDA7D689E3C794EAFA26E6A0DD3E415)
Complete name : F:\Cinema\! New\! Oblomov\Oblomov.1980.1p\Oblomov.1980.1p.mkv
Format : Matroska
Format version : Version 4 / Version 2
File size : 5.69 GiB
Duration : 2 h 21 min
Overall bit rate : 5 776 kb/s
Movie name : Release RSU75
Encoded date : UTC 2020-01-09 17:40:10
Writing application : mkvmerge v6.6.0 ('The Edge Of The In Between') built on Dec 1 2013 17:55:00
Writing library : libebml v1.3.0 + libmatroska v1.4.1

Video
ID : 1
Format : AVC
Format/Info : Advanced Video Codec
Format profile : High@L4.1
Format settings : CABAC / 4 Ref Frames
Format settings, CABAC : Yes
Format settings, ReFrames : 4 frames
Codec ID : V_MPEG4/ISO/AVC
Duration : 2 h 21 min
Bit rate : 3 800 kb/s
Width : 1 512 pixels
Height : 1 080 pixels
Display aspect ratio : 1.400
Frame rate mode : Constant
Frame rate : 23.976 (23976/1000) FPS
Color space : YUV
Chroma subsampling : 4:2:0
Bit depth : 8 bits
Scan type : Progressive
Bits/(Pixel*Frame) : 0.097
Stream size : 3.65 GiB (64%)
Writing library : x264 core 148 r2643 5c65704
Encoding settings : cabac=1 / ref=4 / deblock=1:0:0 / analyse=0x3:0x113 / me=umh / subme=8 / psy=1 / psy_rd=1.00:0.00 / mixed_ref=1 / me_range=24 / chroma_me=1 / trellis=1 / 8x8dct=1 / cqm=0 / deadzone=21,11 / fast_pskip=1 / chroma_qp_offset=-2 / threads=3 / lookahead_threads=1 / sliced_threads=0 / nr=0 / decimate=1 / interlaced=0 / bluray_compat=0 / constrained_intra=0 / bframes=3 / b_pyramid=0 / b_adapt=2 / b_bias=0 / direct=3 / weightb=1 / open_gop=0 / weightp=2 / keyint=250 / keyint_min=25 / scenecut=40 / intra_refresh=0 / rc_lookahead=40 / rc=abr / mbtree=1 / bitrate=3800 / ratetol=1.0 / qcomp=0.60 / qpmin=10 / qpmax=51 / qpstep=4 / ip_ratio=1.41 / aq=1:1.00
Language : English
Default : Yes
Forced : No

Audio #1
ID : 2
Format : DTS
Format/Info : Digital Theater Systems
Codec ID : A_DTS
Duration : 2 h 21 min
Bit rate mode : Constant
Bit rate : 1 509 kb/s
Channel(s) : 6 channels
Channel layout : C L R Ls Rs LFE
Sampling rate : 48.0 kHz
Frame rate : 93.750 FPS (512 SPF)
Bit depth : 24 bits
Compression mode : Lossy
Stream size : 1.49 GiB (26%)
Title : Surround 5.1
Language : Russian
Default : No
Forced : No

Audio #2
ID : 3
Format : AC-3
Format/Info : Audio Coding 3
Commercial name : Dolby Digital
Codec ID : A_AC3
Duration : 2 h 21 min
Bit rate mode : Constant
Bit rate : 448 kb/s
Channel(s) : 2 channels
Channel layout : L R
Sampling rate : 44.1 kHz
Frame rate : 28.711 FPS (1536 SPF)
Bit depth : 16 bits
Compression mode : Lossy
Stream size : 452 MiB (8%)
Title : Stereo
Language : Russian
Service kind : Complete Main
Default : No
Forced : No

Text
ID : 4
Format : PGS
Muxing mode : zlib
Codec ID : S_HDMV/PGS
Codec ID/Info : Picture based subtitle format used on BDs/HD-DVDs
Language : English
Default : Yes
Forced : No

Menu
00:00:00.000 : en:Chapter 01
00:04:50.707 : en:Chapter 02
00:10:25.625 : en:Chapter 03
00:19:17.823 : en:Chapter 04
00:25:56.388 : en:Chapter 05
00:30:47.637 : en:Chapter 06
00:40:45.443 : en:Chapter 07
00:44:48.018 : en:Chapter 08
00:55:21.735 : en:Chapter 09
01:02:31.247 : en:Chapter 10
01:12:07.781 : en:Chapter 11
01:17:07.539 : en:Chapter 12
01:23:34.968 : en:Chapter 13
01:28:46.612 : en:Chapter 14
01:33:56.797 : en:Chapter 15
01:44:14.998 : en:Chapter 16
01:50:02.637 : en:Chapter 17
01:57:26.372 : en:Chapter 18
02:04:35.301 : en:Chapter 19
02:13:57.154 : en:Chapter 20





General
Unique ID : 171073812077807128896765776080823557259 (0x80B39E2415BE0B86AA1E58F847FA9C8B)
Complete name : F:\Oblomov.1980.7p\Oblomov.1980.7p.mkv
Format : Matroska
Format version : Version 4 / Version 2
File size : 3.28 GiB
Duration : 2 h 21 min
Overall bit rate : 3 325 kb/s
Movie name : Release RSU75
Encoded date : UTC 2020-01-09 17:28:03
Writing application : mkvmerge v6.6.0 ('The Edge Of The In Between') built on Dec 1 2013 17:55:00
Writing library : libebml v1.3.0 + libmatroska v1.4.1

Video
ID : 1
Format : AVC
Format/Info : Advanced Video Codec
Format profile : High@L4.1
Format settings : CABAC / 4 Ref Frames
Format settings, CABAC : Yes
Format settings, ReFrames : 4 frames
Codec ID : V_MPEG4/ISO/AVC
Duration : 2 h 21 min
Bit rate : 2 600 kb/s
Width : 1 008 pixels
Height : 720 pixels
Display aspect ratio : 1.400
Frame rate mode : Constant
Frame rate : 23.976 (23976/1000) FPS
Color space : YUV
Chroma subsampling : 4:2:0
Bit depth : 8 bits
Scan type : Progressive
Bits/(Pixel*Frame) : 0.149
Stream size : 2.52 GiB (77%)
Writing library : x264 core 148 r2643 5c65704
Encoding settings : cabac=1 / ref=4 / deblock=1:0:0 / analyse=0x3:0x113 / me=umh / subme=8 / psy=1 / psy_rd=1.00:0.00 / mixed_ref=1 / me_range=24 / chroma_me=1 / trellis=1 / 8x8dct=1 / cqm=0 / deadzone=21,11 / fast_pskip=1 / chroma_qp_offset=-2 / threads=3 / lookahead_threads=1 / sliced_threads=0 / nr=0 / decimate=1 / interlaced=0 / bluray_compat=0 / constrained_intra=0 / bframes=3 / b_pyramid=0 / b_adapt=2 / b_bias=0 / direct=3 / weightb=1 / open_gop=0 / weightp=2 / keyint=250 / keyint_min=25 / scenecut=40 / intra_refresh=0 / rc_lookahead=40 / rc=abr / mbtree=1 / bitrate=2600 / ratetol=1.0 / qcomp=0.60 / qpmin=10 / qpmax=51 / qpstep=4 / ip_ratio=1.41 / aq=1:1.00
Language : English
Default : Yes
Forced : No

Audio #1
ID : 2
Format : AC-3
Format/Info : Audio Coding 3
Commercial name : Dolby Digital
Codec ID : A_AC3
Duration : 2 h 21 min
Bit rate mode : Constant
Bit rate : 448 kb/s
Channel(s) : 6 channels
Channel layout : L R C LFE Ls Rs
Sampling rate : 48.0 kHz
Frame rate : 31.250 FPS (1536 SPF)
Bit depth : 16 bits
Compression mode : Lossy
Stream size : 452 MiB (13%)
Title : Surround 5.1
Language : Russian
Service kind : Complete Main
Default : No
Forced : No

Audio #2
ID : 3
Format : AC-3
Format/Info : Audio Coding 3
Commercial name : Dolby Digital
Codec ID : A_AC3
Duration : 2 h 21 min
Bit rate mode : Constant
Bit rate : 256 kb/s
Channel(s) : 2 channels
Channel layout : L R
Sampling rate : 44.1 kHz
Frame rate : 28.711 FPS (1536 SPF)
Bit depth : 16 bits
Compression mode : Lossy
Stream size : 258 MiB (8%)
Title : Stereo
Language : Russian
Service kind : Complete Main
Default : Yes
Forced : No

Text
ID : 4
Format : PGS
Muxing mode : zlib
Codec ID : S_HDMV/PGS
Codec ID/Info : Picture based subtitle format used on BDs/HD-DVDs
Language : English
Default : Yes
Forced : No

Menu
00:00:00.000 : en:Chapter 01
00:04:50.707 : en:Chapter 02
00:10:25.625 : en:Chapter 03
00:19:17.823 : en:Chapter 04
00:25:56.388 : en:Chapter 05
00:30:47.637 : en:Chapter 06
00:40:45.443 : en:Chapter 07
00:44:48.018 : en:Chapter 08
00:55:21.735 : en:Chapter 09
01:02:31.247 : en:Chapter 10
01:12:07.781 : en:Chapter 11
01:17:07.539 : en:Chapter 12
01:23:34.968 : en:Chapter 13
01:28:46.612 : en:Chapter 14
01:33:56.797 : en:Chapter 15
01:44:14.998 : en:Chapter 16
01:50:02.637 : en:Chapter 17
01:57:26.372 : en:Chapter 18
02:04:35.301 : en:Chapter 19
02:13:57.154 : en:Chapter 20




Screenshots 1080p (click to enlarge to original size):

Oblomov / Neskolko dney iz zhizni I.I. Oblomova / Несколько дней из жизни И. И. Обломова (1980)

Oblomov / Neskolko dney iz zhizni I.I. Oblomova / Несколько дней из жизни И. И. Обломова (1980)

Oblomov / Neskolko dney iz zhizni I.I. Oblomova / Несколько дней из жизни И. И. Обломова (1980)



Screenshots 720p (click to enlarge to original size):

Oblomov / Neskolko dney iz zhizni I.I. Oblomova / Несколько дней из жизни И. И. Обломова (1980)






If you like this release please visit my blog
In it you will find "Russian (Русский)", "Россия", "Nikita Mikhalkov" releases