ORF - The Wannsee Conference (1984) [Repost]

ORF - The Wannsee Conference (1984) [Repost]

ORF - The Wannsee Conference (1984)
DVDRip | 700 x 528 | .AVI/XviD @ 1249 Kbps | 1 h 26 min | 921 MB
Audio: German AC-3 224 Kbps, 2 channels | Subs: English
Genre: Documentary, History

A startling re-creation of a Nazi meeting that determined the "final solution" for six million Jews. On January 20, 1942. 14 members of of Hitler's hierarchy - leaders of the SS, the Nazi Party, Justice Ministry, industry and transport, the state apparatus and lords of enslaved territories - met in the posh Berlin suburb of Wannsee. These elite officials of the Third Reich gathered in utter secrecy for 85 minutes to discuss the ways and means, technology and logistics, of effecting the "Final Solution to the Jewish Problem." The meeting went smoothly. Reinhard Heydrich, chief of the Nazi Security Police and Secret Service, expected to meet some resistance to plans for "Final Solution." There was none. Producer Manfred Korytowski painstakingly researched THE WANNSEE CONFERENCE from the original secretary's notes and reconstructed the meeting in virtually real time. The result is serious and startling. Produced by Manfred Korytowski Directed by Heinz Schirk Screenplay by Paul Mommertz

also You can look my other last: World War II


General
Complete name : ORF.The.Wannsee.Conference.avi
Format : AVI
Format/Info : Audio Video Interleave
File size : 921 MiB
Duration : 1 h 26 min
Overall bit rate : 1 486 kb/s

Video
ID : 0
Format : MPEG-4 Visual
Format profile : Advanced Simple@L5
Format settings, BVOP : 2
Format settings, QPel : No
Format settings, GMC : No warppoints
Format settings, Matrix : Default (H.263)
Codec ID : XVID
Codec ID/Hint : XviD
Duration : 1 h 26 min
Bit rate : 1 249 kb/s
Width : 700 pixels
Height : 528 pixels
Display aspect ratio : 4:3
Frame rate : 29.970 (30000/1001) FPS
Original frame rate : 29.970 (29970/1000) FPS
Color space : YUV
Chroma subsampling : 4:2:0
Bit depth : 8 bits
Scan type : Progressive
Compression mode : Lossy
Bits/(Pixel*Frame) : 0.113
Stream size : 775 MiB (84%)
Writing library : XviD 1.2.1 (UTC 2008-12-04)

Audio
ID : 1
Format : AC-3
Format/Info : Audio Coding 3
Format settings, Endianness : Big
Codec ID : 2000
Duration : 1 h 26 min
Bit rate mode : Constant
Bit rate : 224 kb/s
Channel(s) : 2 channels
Channel positions : Front: L R
Sampling rate : 48.0 kHz
Frame rate : 31.250 FPS (1536 spf)
Bit depth : 16 bits
Compression mode : Lossy
Stream size : 139 MiB (15%)
Alignment : Aligned on interleaves
Interleave, duration : 32 ms (0.96 video frame)
Service kind : Complete Main
Screenshots

ORF - The Wannsee Conference (1984) [Repost]

ORF - The Wannsee Conference (1984) [Repost]

ORF - The Wannsee Conference (1984) [Repost]

Welcome to my blog - daily update!

ORF - The Wannsee Conference (1984) [Repost]