Nurse Sherri (1978)

Nurse Sherri (1978)

Nurse Sherri (1978)
BDRip | MKV | 1920x1040 | English | H264 @ 2500 kbps | AAC @ 224 kbps | 1 h 29 min | 1.70 GiB
Subtitles: Dutch
Genre: Horror

A hospital nurse is possessed by an evil spirit, and proceeds to kill off the hospital's patients.

Nurse.Sherri.1978.1080p.BluRay.H264.AAC-RARBG.mkv (1.7 GB)
Nurse.Sherri.1978.1080p.BluRay.H264.AAC-RARBG.srt (48.7 KB)



General
Unique ID : 95493810571316905285222956574435314590 (0x47D7705D9ACCB51728F2EDE0CD820B9E)
Complete name : ./Nurse.Sherri.1978.1080p.BluRay.H264.AAC-RARBG.mkv
Format : Matroska
Format version : Version 4 / Version 2
File size : 1.70 GiB
Duration : 1 h 29 min
Overall bit rate : 2 726 kb/s
Encoded date : UTC 2019-10-04 22:04:49
Writing application : mkvmerge v37.0.0 ('Leave It') 64-bit
Writing library : libebml v1.3.9 + libmatroska v1.5.2
Cover : Yes
Attachments : cover.png

Video
ID : 1
Format : AVC
Format/Info : Advanced Video Codec
Format profile : High@L4.1
Format settings : CABAC / 4 Ref Frames
Format settings, CABAC : Yes
Format settings, RefFrames : 4 frames
Codec ID : V_MPEG4/ISO/AVC
Duration : 1 h 29 min
Bit rate : 2 500 kb/s
Width : 1 920 pixels
Height : 1 040 pixels
Display aspect ratio : 1.85:1
Frame rate mode : Constant
Frame rate : 23.976 (23976/1000) FPS
Color space : YUV
Chroma subsampling : 4:2:0
Bit depth : 8 bits
Scan type : Progressive
Bits/(Pixel*Frame) : 0.052
Stream size : 1.56 GiB (92%)
Writing library : x264 core 152 r2851M ba24899
Encoding settings : cabac=1 / ref=4 / deblock=1:-1:-1 / analyse=0x3:0x113 / me=umh / subme=9 / psy=1 / psy_rd=1.00:0.15 / mixed_ref=1 / me_range=24 / chroma_me=1 / trellis=2 / 8x8dct=1 / cqm=0 / deadzone=21,11 / fast_pskip=1 / chroma_qp_offset=-3 / threads=32 / lookahead_threads=4 / sliced_threads=0 / nr=0 / decimate=1 / interlaced=0 / bluray_compat=0 / constrained_intra=0 / bframes=3 / b_pyramid=2 / b_adapt=2 / b_bias=0 / direct=3 / weightb=1 / open_gop=0 / weightp=2 / keyint=250 / keyint_min=25 / scenecut=40 / intra_refresh=0 / rc_lookahead=50 / rc=2pass / mbtree=1 / bitrate=2500 / ratetol=1.0 / qcomp=0.60 / qpmin=0 / qpmax=69 / qpstep=4 / cplxblur=20.0 / qblur=0.5 / vbv_maxrate=31250 / vbv_bufsize=31250 / nal_hrd=none / filler=0 / ip_ratio=1.40 / aq=3:1.00
Default : Yes
Forced : No

Audio
ID : 2
Format : AAC
Format/Info : Advanced Audio Codec
Format profile : LC
Codec ID : A_AAC-2
Duration : 1 h 29 min
Bit rate : 224 kb/s
Channel(s) : 1 channel
Channel positions : Front: C
Sampling rate : 48.0 kHz
Frame rate : 46.875 FPS (1024 SPF)
Compression mode : Lossy
Delay relative to video : -43 ms
Stream size : 143 MiB (8%)
Language : English
Default : Yes
Forced : No

Text
ID : 3
Format : UTF-8
Codec ID : S_TEXT/UTF8
Codec ID/Info : UTF-8 Plain Text
Duration : 1 h 24 min
Bit rate : 33 b/s
Count of elements : 711
Stream size : 21.0 KiB (0%)
Language : Dutch
Default : Yes
Forced : No

Menu
00:00:00.000 : :Hoofdstuk 01
00:10:00.000 : :Hoofdstuk 02
00:20:00.000 : :Hoofdstuk 03
00:30:00.000 : :Hoofdstuk 04
00:40:00.000 : :Hoofdstuk 05
00:50:00.000 : :Hoofdstuk 06
01:00:00.000 : :Hoofdstuk 07
01:10:00.000 : :Hoofdstuk 08
01:20:00.000 : :Hoofdstuk 09





Nurse Sherri (1978)


Nurse Sherri (1978)


Nurse Sherri (1978)


Nurse Sherri (1978)


Nurse Sherri (1978)