Not Guilty / Non coupable (1947)

Not Guilty / Non coupable (1947)

Not Guilty / Non coupable (1947)
DVDRip | MKV | 702 x 576 | AVC @ 2200 Kbps | 97 min | 1.64 Gb
Audio: French AC3 1.0 @ 192 Kbps | Subs: English (Embedded)
Genre: Crime, Drama | France

Michel Ancelin is an alcoholic doctor: the more the people look down on him as a miserable failure the more he hates his own guts… until that night when, driving home and drunk, he accidentally kills a man. What if it was just the burst of pride his fine intelligence was waiting?

IMDB 7.3/10 from 107 users

Director: Henri Decoin
Writer: Marc-Gilbert Sauvajon (dialogue), Marc-Gilbert Sauvajon (screenplay)
Actors: Michel Simon, Jean Debucourt, Georges Bréhat, François Joux
Rated: N/A
Runtime: 97 min

This movie is proof positive that Michel Simon is one of the most prodigious actors in the whole world.As for Decoin,he's almost forgotten in France,which is a shame because some of his works equal those of his colleagues Duvivier and Clouzot.

Right from the start ,we know Doctor Ancelin(Simon) is the murderer:he's a mediocre man,the inhabitants of his small town regard him as a meek,good-but-not-too-smart guy.His partner (Holt) sleeps with the garage owner,his colleagues despise him as a barfly,he is ugly,fat ,in a nutshell,he holds a grudge against the entire community.And what a community!a journalist who rejoices when a murder is committed,(this journalist makes me think of Tatum -Kirk Douglas- in Wilder's "Big Carnival"),arrogant doctors whose main objective is social elevation,Ancelin's partner who wants to help the police just because there is a reward.This misanthropy evokes Clouzot's world.

At the wheel,Ancelin kills a man in an accident and gets away with it.Then he begins to think he could murder with impunity. Crime will provide him with the achievement he could not reach in his job or in his sentimental life.Some scenes will make your hair stand on end:after having killed her lover,Ancelin told his terrified partner that he had also planned her death,and he could easily have done away with her instead.A black cat,often shot in close-up,adds to the sometimes poesque atmosphere,and even this harmless animal will play a part in the astonishing ending.

Michel Simon gives a masterful performance,from a whisper to a scream,from logical reasoning to absolute madness.His longing to be acknowledged will not be fulfilled ,because of people's stupidity,because his crimes were too perfect,because of fate ,because of a black cat which crossed his path:the pitiful doctor will go to his grave an imbecile to the world.

– dbdumonteil (IMDb)



Not Guilty / Non coupable (1947)

Not Guilty / Non coupable (1947)

Not Guilty / Non coupable (1947)


Not Guilty / Non coupable (1947)



General
Unique ID : 211659094625619643487759827756173723138 (0x9F3C0F0FC1074DF6B3A9E34B57538602)
Complete name : E:\HDNLUF014\New folder\Non Coupable (1947) – Henri Decoin.mkv
Format : Matroska
Format version : Version 4 / Version 2
File size : 1.64 GiB
Duration : 1 h 37 min
Overall bit rate : 2 397 kb/s
Encoded date : UTC 2017-09-12 09:09:58
Writing application : mkvmerge v7.7.0 ('Six Voices') 32bit built on Feb 28 2015 23:23:00
Writing library : libebml v1.3.1 + libmatroska v1.4.2

Video
ID : 1
Format : AVC
Format/Info : Advanced Video Codec
Format profile : High@L4.1
Format settings, CABAC : Yes
Format settings, ReFrames : 10 frames
Codec ID : V_MPEG4/ISO/AVC
Duration : 1 h 37 min
Bit rate : 2 200 kb/s
Width : 702 pixels
Height : 576 pixels
Display aspect ratio : 4:3
Frame rate mode : Constant
Frame rate : 24.000 FPS
Color space : YUV
Chroma subsampling : 4:2:0
Bit depth : 8 bits
Scan type : Progressive
Bits/(Pixel*Frame) : 0.227
Stream size : 1.50 GiB (92%)
Writing library : x264 core 146 r2538 121396c
Encoding settings : cabac=1 / ref=10 / deblock=1:-3:-3 / analyse=0x3:0x133 / me=umh / subme=9 / psy=1 / psy_rd=1.00:0.15 / mixed_ref=1 / me_range=28 / chroma_me=0 / trellis=2 / 8x8dct=1 / cqm=0 / deadzone=21,11 / fast_pskip=0 / chroma_qp_offset=-3 / threads=3 / lookahead_threads=1 / sliced_threads=0 / nr=0 / decimate=0 / interlaced=0 / bluray_compat=0 / constrained_intra=0 / bframes=16 / b_pyramid=2 / b_adapt=2 / b_bias=0 / direct=3 / weightb=1 / open_gop=0 / weightp=2 / keyint=240 / keyint_min=24 / scenecut=40 / intra_refresh=0 / rc_lookahead=100 / rc=2pass / mbtree=1 / bitrate=2200 / ratetol=3.0 / qcomp=0.60 / qpmin=0 / qpmax=69 / qpstep=4 / cplxblur=20.0 / qblur=0.5 / vbv_maxrate=62500 / vbv_bufsize=78125 / nal_hrd=none / filler=0 / ip_ratio=1.40 / aq=1:1.20
Language : English
Default : Yes
Forced : No

Audio
ID : 2
Format : AC-3
Format/Info : Audio Coding 3
Mode extension : CM (complete main)
Format settings, Endianness : Big
Codec ID : A_AC3
Duration : 1 h 37 min
Bit rate mode : Constant
Bit rate : 192 kb/s
Channel(s) : 1 channel
Channel positions : Front: C
Sampling rate : 48.0 kHz
Frame rate : 31.250 FPS (1536 spf)
Bit depth : 16 bits
Compression mode : Lossy
Stream size : 134 MiB (8%)
Default : Yes
Forced : No

Text #1
ID : 3
Format : UTF-8
Codec ID : S_TEXT/UTF8
Codec ID/Info : UTF-8 Plain Text
Duration : 1 h 33 min
Bit rate : 76 b/s
Count of elements : 1315
Stream size : 52.6 KiB (0%)
Default : Yes
Forced : No

Text #2
ID : 4
Format : VobSub
Muxing mode : zlib
Codec ID : S_VOBSUB
Codec ID/Info : Picture based subtitle format used on DVDs
Duration : 1 h 36 min
Bit rate : 3 253 b/s
Count of elements : 1315
Stream size : 2.24 MiB (0%)
Language : English
Default : No
Forced : No


Many Thanks to Original uploader.


For More Rare Movies Check out my blog!


Download Links :

No Mirrors Please