Not Guilty / Non coupable (1947)

Not Guilty / Non coupable (1947)

Not Guilty / Non coupable (1947)
BDRip 1080p | MKV | AVC, 1480x1080, ~ 3.8 Mbps | 1hr 37mn | 3.64 GB | French (Français): DTS, 2 ch, 1510 kbps
BDRip 720p | MKV | AVC, 988x720, ~ 2.6 Mbps | 1hr 37mn | 2.10 GB | French (Français): AC3, 2 ch, 448 kbps
Subtitles: English
Genre: Crime, Drama
IMDB Rating: 7.4/10 (151 votes)


Director: Henri Decoin (as Henry Decoin)
Writers: Marc-Gilbert Sauvajon (dialogue), Marc-Gilbert Sauvajon (screenplay)
Stars: Michel Simon, Jean Debucourt, Georges Bréhat

Michel Ancelin is an alcoholic doctor: the more the people look down on him as a miserable failure the more he hates his own guts… until that night when, driving home and drunk, he accidentally kills a man. What if it was just the burst of pride his fine intelligence was waiting?

Extras:
- None




General
Unique ID : 214537217595626471360313954169393449295 (0xA1665D7AD13C7DE197A2CCE47D73094F)
Complete name : F:\NotGuilty.1947.1p\NotGuilty.1947.1p.mkv
Format : Matroska
Format version : Version 4 / Version 2
File size : 3.64 GiB
Duration : 1 h 37 min
Overall bit rate : 5 319 kb/s
Movie name : Release RSU75
Encoded date : UTC 2020-01-13 03:35:50
Writing application : mkvmerge v6.6.0 ('The Edge Of The In Between') built on Dec 1 2013 17:55:00
Writing library : libebml v1.3.0 + libmatroska v1.4.1

Video
ID : 1
Format : AVC
Format/Info : Advanced Video Codec
Format profile : High@L4.1
Format settings : CABAC / 4 Ref Frames
Format settings, CABAC : Yes
Format settings, ReFrames : 4 frames
Codec ID : V_MPEG4/ISO/AVC
Duration : 1 h 37 min
Bit rate : 3 800 kb/s
Width : 1 480 pixels
Height : 1 080 pixels
Display aspect ratio : 1.370
Frame rate mode : Constant
Frame rate : 24.000 FPS
Color space : YUV
Chroma subsampling : 4:2:0
Bit depth : 8 bits
Scan type : Progressive
Bits/(Pixel*Frame) : 0.099
Stream size : 2.53 GiB (70%)
Writing library : x264 core 148 r2643 5c65704
Encoding settings : cabac=1 / ref=4 / deblock=1:0:0 / analyse=0x3:0x113 / me=umh / subme=8 / psy=1 / psy_rd=1.00:0.00 / mixed_ref=1 / me_range=24 / chroma_me=1 / trellis=1 / 8x8dct=1 / cqm=0 / deadzone=21,11 / fast_pskip=1 / chroma_qp_offset=-2 / threads=3 / lookahead_threads=1 / sliced_threads=0 / nr=0 / decimate=1 / interlaced=0 / bluray_compat=0 / constrained_intra=0 / bframes=3 / b_pyramid=0 / b_adapt=2 / b_bias=0 / direct=3 / weightb=1 / open_gop=0 / weightp=2 / keyint=250 / keyint_min=25 / scenecut=40 / intra_refresh=0 / rc_lookahead=40 / rc=abr / mbtree=1 / bitrate=3800 / ratetol=1.0 / qcomp=0.60 / qpmin=10 / qpmax=51 / qpstep=4 / ip_ratio=1.41 / aq=1:1.00
Language : English
Default : Yes
Forced : No

Audio
ID : 2
Format : DTS
Format/Info : Digital Theater Systems
Codec ID : A_DTS
Duration : 1 h 37 min
Bit rate mode : Constant
Bit rate : 1 509 kb/s
Channel(s) : 2 channels
Channel layout : L R
Sampling rate : 48.0 kHz
Frame rate : 93.750 FPS (512 SPF)
Bit depth : 16 bits
Compression mode : Lossy
Stream size : 1.03 GiB (28%)
Title : Stereo
Language : French
Default : Yes
Forced : No

Text #1
ID : 3
Format : PGS
Muxing mode : zlib
Codec ID : S_HDMV/PGS
Codec ID/Info : Picture based subtitle format used on BDs/HD-DVDs
Language : English
Default : Yes
Forced : No

Text #2
ID : 4
Format : PGS
Muxing mode : zlib
Codec ID : S_HDMV/PGS
Codec ID/Info : Picture based subtitle format used on BDs/HD-DVDs
Language : French
Default : No
Forced : No

Menu
00:00:00.000 : en:Chapter 01
00:05:00.458 : en:Chapter 02
00:10:00.583 : en:Chapter 03
00:15:00.000 : en:Chapter 04
00:20:00.000 : en:Chapter 05
00:25:00.375 : en:Chapter 06
00:29:59.750 : en:Chapter 07
00:35:00.083 : en:Chapter 08
00:39:59.791 : en:Chapter 09
00:45:00.083 : en:Chapter 10
00:50:00.541 : en:Chapter 11
00:54:59.750 : en:Chapter 12
01:00:00.083 : en:Chapter 13
01:04:59.625 : en:Chapter 14
01:09:59.833 : en:Chapter 15
01:15:00.416 : en:Chapter 16
01:20:00.166 : en:Chapter 17
01:25:00.333 : en:Chapter 18
01:30:00.083 : en:Chapter 19
01:35:00.250 : en:Chapter 20





General
Unique ID : 193986391968704555478139799441349931630 (0x91F06B8C4DC8C329AE2CEE69DB0DF26E)
Complete name : F:\NotGuilty.1947.7p\NotGuilty.1947.7p.mkv
Format : Matroska
Format version : Version 4 / Version 2
File size : 2.10 GiB
Duration : 1 h 37 min
Overall bit rate : 3 064 kb/s
Movie name : Release RSU75
Encoded date : UTC 2020-01-13 03:50:12
Writing application : mkvmerge v6.6.0 ('The Edge Of The In Between') built on Dec 1 2013 17:55:00
Writing library : libebml v1.3.0 + libmatroska v1.4.1

Video
ID : 1
Format : AVC
Format/Info : Advanced Video Codec
Format profile : High@L4.1
Format settings : CABAC / 4 Ref Frames
Format settings, CABAC : Yes
Format settings, ReFrames : 4 frames
Codec ID : V_MPEG4/ISO/AVC
Duration : 1 h 37 min
Bit rate : 2 600 kb/s
Width : 988 pixels
Height : 720 pixels
Display aspect ratio : 1.371
Original display aspect rat : 1.370
Frame rate mode : Constant
Frame rate : 24.000 FPS
Color space : YUV
Chroma subsampling : 4:2:0
Bit depth : 8 bits
Scan type : Progressive
Bits/(Pixel*Frame) : 0.152
Stream size : 1.75 GiB (83%)
Writing library : x264 core 148 r2643 5c65704
Encoding settings : cabac=1 / ref=4 / deblock=1:0:0 / analyse=0x3:0x113 / me=umh / subme=8 / psy=1 / psy_rd=1.00:0.00 / mixed_ref=1 / me_range=24 / chroma_me=1 / trellis=1 / 8x8dct=1 / cqm=0 / deadzone=21,11 / fast_pskip=1 / chroma_qp_offset=-2 / threads=3 / lookahead_threads=1 / sliced_threads=0 / nr=0 / decimate=1 / interlaced=0 / bluray_compat=0 / constrained_intra=0 / bframes=3 / b_pyramid=0 / b_adapt=2 / b_bias=0 / direct=3 / weightb=1 / open_gop=0 / weightp=2 / keyint=250 / keyint_min=25 / scenecut=40 / intra_refresh=0 / rc_lookahead=40 / rc=abr / mbtree=1 / bitrate=2600 / ratetol=1.0 / qcomp=0.60 / qpmin=10 / qpmax=51 / qpstep=4 / ip_ratio=1.41 / aq=1:1.00
Language : English
Default : Yes
Forced : No

Audio
ID : 2
Format : AC-3
Format/Info : Audio Coding 3
Commercial name : Dolby Digital
Codec ID : A_AC3
Duration : 1 h 37 min
Bit rate mode : Constant
Bit rate : 448 kb/s
Channel(s) : 2 channels
Channel layout : L R
Sampling rate : 48.0 kHz
Frame rate : 31.250 FPS (1536 SPF)
Bit depth : 16 bits
Compression mode : Lossy
Stream size : 314 MiB (15%)
Title : Stereo
Language : French
Service kind : Complete Main
Default : Yes
Forced : No

Text #1
ID : 3
Format : PGS
Muxing mode : zlib
Codec ID : S_HDMV/PGS
Codec ID/Info : Picture based subtitle format used on BDs/HD-DVDs
Language : English
Default : Yes
Forced : No

Text #2
ID : 4
Format : PGS
Muxing mode : zlib
Codec ID : S_HDMV/PGS
Codec ID/Info : Picture based subtitle format used on BDs/HD-DVDs
Language : French
Default : No
Forced : No

Menu
00:00:00.000 : en:Chapter 01
00:05:00.458 : en:Chapter 02
00:10:00.583 : en:Chapter 03
00:15:00.000 : en:Chapter 04
00:20:00.000 : en:Chapter 05
00:25:00.375 : en:Chapter 06
00:29:59.750 : en:Chapter 07
00:35:00.083 : en:Chapter 08
00:39:59.791 : en:Chapter 09
00:45:00.083 : en:Chapter 10
00:50:00.541 : en:Chapter 11
00:54:59.750 : en:Chapter 12
01:00:00.083 : en:Chapter 13
01:04:59.625 : en:Chapter 14
01:09:59.833 : en:Chapter 15
01:15:00.416 : en:Chapter 16
01:20:00.166 : en:Chapter 17
01:25:00.333 : en:Chapter 18
01:30:00.083 : en:Chapter 19
01:35:00.250 : en:Chapter 20




Screenshots 1080p (click to enlarge to original size):

Not Guilty / Non coupable (1947)

Not Guilty / Non coupable (1947)

Not Guilty / Non coupable (1947)



Screenshots 720p (click to enlarge to original size):

Not Guilty / Non coupable (1947)






If you like this release please visit my blog
In it you will find "Blu-Ray", "BDRip" releases