Night Moves (1975)

Night Moves (1975)

Night Moves (1975)
BDRip 720p | MKV | 1280x720 | AVC@7904 kb/s | English DTS@1 509 kb/s
Subs: English | 2 channels | 1 h 39 min | 6.56 GB
Genre: Crime, Mystery, Thriller

Los Angeles private detective Harry Moseby is hired by a client to find her runaway teenage daughter and he stumbles upon a case of murder and artifact smuggling.

IMDB - Nominated for 1 BAFTA Film Award. Another 1 nomination


General
Night.Moves.1975.720p.BluRay.X264-AMIABLE\Night.Moves.1975.720p.BluRay.X264-AMIABLE.mkv
Format : Matroska
Format version : Version 4 / Version 2
File size : 6.56 GiB
Duration : 1 h 39 min
Overall bit rate : 9 417 kb/s
Encoded date : UTC 2010-02-22 21:41:29
Writing application : no_variable_data
Writing library : no_variable_data

Video
ID : 1
Format : AVC
Format/Info : Advanced Video Codec
Format profile : High@L4.1
Format settings, CABAC : Yes
Format settings, ReFrames : 5 frames
Codec ID : V_MPEG4/ISO/AVC
Duration : 1 h 39 min
Bit rate : 7 904 kb/s
Width : 1 280 pixels
Height : 720 pixels
Display aspect ratio : 16:9
Frame rate mode : Constant
Frame rate : 23.976 (24000/1001) FPS
Color space : YUV
Chroma subsampling : 4:2:0
Bit depth : 8 bits
Scan type : Progressive
Bits/(Pixel*Frame) : 0.358
Stream size : 5.38 GiB (82%)
Writing library : x264 core 152 r2851 ba24899
Encoding settings : cabac=1 / ref=5 / deblock=1:-3:-3 / analyse=0x3:0x113 / me=umh / subme=8 / psy=1 / psy_rd=1.15:0.00 / mixed_ref=1 / me_range=24 / chroma_me=1 / trellis=2 / 8x8dct=1 / cqm=0 / deadzone=21,11 / fast_pskip=1 / chroma_qp_offset=-2 / threads=22 / lookahead_threads=3 / sliced_threads=0 / nr=0 / decimate=1 / interlaced=0 / bluray_compat=0 / constrained_intra=0 / bframes=3 / b_pyramid=2 / b_adapt=2 / b_bias=0 / direct=3 / weightb=1 / open_gop=0 / weightp=2 / keyint=240 / keyint_min=24 / scenecut=40 / intra_refresh=0 / rc_lookahead=50 / rc=2pass / mbtree=1 / bitrate=7904 / ratetol=1.0 / qcomp=0.60 / qpmin=0 / qpmax=69 / qpstep=4 / cplxblur=20.0 / qblur=0.5 / ip_ratio=1.40 / aq=3:0.75
Default : Yes
Forced : No
Statistics Tags Issue : no_variable_data 1970-01-01 00:00:00 / no_variable_data 2010-02-22 21:41:29
FromStats_BitRate : 7905149
FromStats_Duration : 01:39:42.936000000
FromStats_FrameCount : 143447
FromStats_StreamSize : 5912000462

Audio
ID : 2
Format : DTS
Format/Info : Digital Theater Systems
Mode : 16
Format settings, Endianness : Big
Codec ID : A_DTS
Duration : 1 h 39 min
Bit rate mode : Constant
Bit rate : 1 509 kb/s
Channel(s) : 2 channels
Channel positions : Front: L R
Sampling rate : 48.0 kHz
Frame rate : 93.750 FPS (512 spf)
Bit depth : 24 bits
Compression mode : Lossy
Stream size : 1.05 GiB (16%)
Language : English
Default : Yes
Forced : No
Statistics Tags Issue : no_variable_data 1970-01-01 00:00:00 / no_variable_data 2010-02-22 21:41:29
FromStats_BitRate : 1508999
FromStats_Duration : 01:39:42.966000000
FromStats_FrameCount : 560903
FromStats_StreamSize : 1128536836

Text #1
ID : 3
Format : UTF-8
Codec ID : S_TEXT/UTF8
Codec ID/Info : UTF-8 Plain Text
Language : English
Default : No
Forced : No
Statistics Tags Issue : no_variable_data 1970-01-01 00:00:00 / no_variable_data 2010-02-22 21:41:29
FromStats_BitRate : 52
FromStats_Duration : 01:36:51.764000000
FromStats_FrameCount : 1271
FromStats_StreamSize : 37973

Text #2
ID : 4
Format : UTF-8
Codec ID : S_TEXT/UTF8
Codec ID/Info : UTF-8 Plain Text
Title : SDH
Language : English
Default : No
Forced : No
Statistics Tags Issue : no_variable_data 1970-01-01 00:00:00 / no_variable_data 2010-02-22 21:41:29
FromStats_BitRate : 56
FromStats_Duration : 01:36:52.682000000
FromStats_FrameCount : 1396
FromStats_StreamSize : 40979

Menu
00:00:00.000 : en:00:00:00.000
00:02:46.958 : en:00:02:46.958
00:07:05.175 : en:00:07:05.175
00:09:12.218 : en:00:09:12.218
00:12:27.872 : en:00:12:27.872
00:14:30.036 : en:00:14:30.036
00:20:21.554 : en:00:20:21.554
00:24:51.532 : en:00:24:51.532
00:29:18.256 : en:00:29:18.256
00:34:29.693 : en:00:34:29.693
00:37:53.354 : en:00:37:53.354
00:41:06.464 : en:00:41:06.464
00:44:41.304 : en:00:44:41.304
00:49:10.990 : en:00:49:10.990
00:54:13.417 : en:00:54:13.417
00:57:23.023 : en:00:57:23.023
01:00:57.988 : en:01:00:57.988
01:03:10.286 : en:01:03:10.286
01:06:18.892 : en:01:06:18.892
01:12:08.574 : en:01:12:08.574
01:17:39.280 : en:01:17:39.280
01:19:42.361 : en:01:19:42.361
01:23:26.376 : en:01:23:26.376
01:28:45.570 : en:01:28:45.570
01:31:14.844 : en:01:31:14.844
01:36:23.277 : en:01:36:23.277
01:38:21.896 : en:01:38:21.896


BDRip 720p Screenshots

Night Moves (1975)

Night Moves (1975)

Night Moves (1975)

Night Moves (1975)

Night Moves (1975)

Night Moves (1975)


Come Visit My Blog (•‿•)