Nuts In May (1976) **[RE-UP]**

Nuts In May (1976) **[RE-UP]**

Nuts In May (1976)
DVD rip | AVI: 1073 kbps | 512 x 384 | MP3 (128 Kbps) | 80 min | English | 691 mb
Genre: comedy

Nuts In May is a British made-for-television movie made by the BBC in 1976. In this, a middle-class couple go camping in Dorset, but peace and quiet elude them. It was directed by Mike Leigh and stars Alison Steadman, Roger Sloman, Anthony O'Donnell, Sheila Kelley and Richenda Carey among them. It was an episode in the iconic anthology series Play for Today.

Nuts In May (1976) **[RE-UP]**


General
Complete name : E:\FLAC\AAA 2017\Vids\Nuts In May (1976)\Nuts in May (1976).avi
Format : AVI
Format/Info : Audio Video Interleave
File size : 699 MiB
Duration : 1h 20mn
Overall bit rate : 1 208 Kbps
Writing application : VirtualDubMod 1.5.4.1 (build 2178/release)
Writing library : VirtualDubMod build 2178/release

Video
ID : 0
Format : MPEG-4 Visual
Format profile : Advanced Simple@L5
Format settings, BVOP : 1
Format settings, QPel : No
Format settings, GMC : No warppoints
Format settings, Matrix : Custom
Codec ID : XVID
Codec ID/Hint : XviD
Duration : 1h 20mn
Bit rate : 1 073 Kbps
Width : 512 pixels
Height : 384 pixels
Display aspect ratio : 4:3
Frame rate : 25.000 fps
Color space : YUV
Chroma subsampling : 4:2:0
Bit depth : 8 bits
Scan type : Progressive
Compression mode : Lossy
Bits/(Pixel*Frame) : 0.218
Stream size : 621 MiB (89%)
Writing library : XviD 1.2.0.dev47 (UTC 2006-11-01)

Audio
ID : 1
Format : MPEG Audio
Format version : Version 1
Format profile : Layer 3
Mode : Joint stereo
Mode extension : MS Stereo
Codec ID : 55
Codec ID/Hint : MP3
Duration : 1h 20mn
Bit rate mode : Constant
Bit rate : 128 Kbps
Channel(s) : 2 channels
Sampling rate : 48.0 KHz
Compression mode : Lossy
Stream size : 74.1 MiB (11%)
Alignment : Aligned on interleaves
Interleave, duration : 80 ms (2.00 video frames)
Interleave, preload duration : 504 ms
Writing library : LAME3.97
Encoding settings : -m j -V 4 -q 2 -lowpass 17 -b 128
Language : English