Mutiny on the Bounty (1935)

Mutiny on the Bounty (1935)

Mutiny on the Bounty (1935)
BDRip 1080p | MKV | AVC 1480x1080, ~ 3.8 Mbps | 2hr 12mn | 5.23 GB
English: DTS, 1 ch, 768 kbps; French (Français) \ German (Deutsch) \ Spanish (Español) \ Portuguese (Português): AC3, 2 ch, 192 kbps
Subtitles: English, Spanish, French, German, Portuguese, Norwegian
Genre: Adventure, Biography, Drama



Director: Frank Lloyd
Writers: Talbot Jennings (screenplay), Jules Furthman (screenplay)
Stars: Charles Laughton, Clark Gable, Franchot Tone

Midshipman Roger Byam joins Captain Bligh and Fletcher Christian aboard HMS Bounty for a voyage to Tahiti. Bligh proves to be a brutal tyrant and, after six pleasant months on Tahiti, Christian leads the crew to mutiny on the homeward voyage. Even though Byam takes no part in the mutiny, he must defend himself against charges that he supported Christian.

Extras:
- None




General
Unique ID : 172721395502939250123315462044149311572 (0x81F0EE46850F0C689E7CBC02D9EF6854)
Complete name : F:\MutinyOnTheBounty.1935.1p\MutinyOnTheBounty.1935.1p.mkv
Format : Matroska
Format version : Version 4 / Version 2
File size : 5.23 GiB
Duration : 2 h 12 min
Overall bit rate : 5 646 kb/s
Movie name : Release RSU75
Encoded date : UTC 2020-02-11 05:27:48
Writing application : mkvmerge v6.6.0 ('The Edge Of The In Between') built on Dec 1 2013 17:55:00
Writing library : libebml v1.3.0 + libmatroska v1.4.1

Video
ID : 1
Format : AVC
Format/Info : Advanced Video Codec
Format profile : High@L4.1
Format settings : CABAC / 4 Ref Frames
Format settings, CABAC : Yes
Format settings, ReFrames : 4 frames
Codec ID : V_MPEG4/ISO/AVC
Duration : 2 h 12 min
Bit rate : 3 800 kb/s
Width : 1 480 pixels
Height : 1 080 pixels
Display aspect ratio : 1.370
Frame rate mode : Constant
Frame rate : 23.976 (23976/1000) FPS
Color space : YUV
Chroma subsampling : 4:2:0
Bit depth : 8 bits
Scan type : Progressive
Bits/(Pixel*Frame) : 0.099
Stream size : 3.53 GiB (67%)
Writing library : x264 core 148 r2643 5c65704
Encoding settings : cabac=1 / ref=4 / deblock=1:0:0 / analyse=0x3:0x113 / me=umh / subme=8 / psy=1 / psy_rd=1.00:0.00 / mixed_ref=1 / me_range=24 / chroma_me=1 / trellis=1 / 8x8dct=1 / cqm=0 / deadzone=21,11 / fast_pskip=1 / chroma_qp_offset=-2 / threads=3 / lookahead_threads=1 / sliced_threads=0 / nr=0 / decimate=1 / interlaced=0 / bluray_compat=0 / constrained_intra=0 / bframes=3 / b_pyramid=0 / b_adapt=2 / b_bias=0 / direct=3 / weightb=1 / open_gop=0 / weightp=2 / keyint=250 / keyint_min=25 / scenecut=40 / intra_refresh=0 / rc_lookahead=40 / rc=abr / mbtree=1 / bitrate=3800 / ratetol=1.0 / qcomp=0.60 / qpmin=10 / qpmax=51 / qpstep=4 / ip_ratio=1.41 / aq=1:1.00
Language : English
Default : Yes
Forced : No

Audio #1
ID : 2
Format : DTS
Format/Info : Digital Theater Systems
Codec ID : A_DTS
Duration : 2 h 12 min
Bit rate mode : Constant
Bit rate : 768 kb/s
Channel(s) : 1 channel
Channel layout : C
Sampling rate : 48.0 kHz
Frame rate : 93.750 FPS (512 SPF)
Bit depth : 24 bits
Compression mode : Lossy
Delay relative to video : -42 ms
Stream size : 729 MiB (14%)
Title : Mono
Language : English
Default : Yes
Forced : No

Audio #2
ID : 3
Format : AC-3
Format/Info : Audio Coding 3
Commercial name : Dolby Digital
Codec ID : A_AC3
Duration : 2 h 12 min
Bit rate mode : Constant
Bit rate : 192 kb/s
Channel(s) : 1 channel
Channel layout : C
Sampling rate : 48.0 kHz
Frame rate : 31.250 FPS (1536 SPF)
Bit depth : 16 bits
Compression mode : Lossy
Delay relative to video : -42 ms
Stream size : 182 MiB (3%)
Title : Mono
Language : French
Service kind : Complete Main
Default : No
Forced : No

Audio #3
ID : 4
Format : AC-3
Format/Info : Audio Coding 3
Commercial name : Dolby Digital
Codec ID : A_AC3
Duration : 2 h 12 min
Bit rate mode : Constant
Bit rate : 192 kb/s
Channel(s) : 1 channel
Channel layout : C
Sampling rate : 48.0 kHz
Frame rate : 31.250 FPS (1536 SPF)
Bit depth : 16 bits
Compression mode : Lossy
Delay relative to video : -42 ms
Stream size : 182 MiB (3%)
Title : Mono
Language : German
Service kind : Complete Main
Default : No
Forced : No

Audio #4
ID : 5
Format : AC-3
Format/Info : Audio Coding 3
Commercial name : Dolby Digital
Codec ID : A_AC3
Duration : 2 h 12 min
Bit rate mode : Constant
Bit rate : 192 kb/s
Channel(s) : 1 channel
Channel layout : C
Sampling rate : 48.0 kHz
Frame rate : 31.250 FPS (1536 SPF)
Bit depth : 16 bits
Compression mode : Lossy
Delay relative to video : -42 ms
Stream size : 182 MiB (3%)
Title : Mono
Language : Spanish
Service kind : Complete Main
Default : No
Forced : No

Audio #5
ID : 6
Format : AC-3
Format/Info : Audio Coding 3
Commercial name : Dolby Digital
Codec ID : A_AC3
Duration : 2 h 12 min
Bit rate mode : Constant
Bit rate : 192 kb/s
Channel(s) : 1 channel
Channel layout : C
Sampling rate : 48.0 kHz
Frame rate : 31.250 FPS (1536 SPF)
Bit depth : 16 bits
Compression mode : Lossy
Delay relative to video : -42 ms
Stream size : 182 MiB (3%)
Title : Mono
Language : Spanish
Service kind : Complete Main
Default : No
Forced : No

Audio #6
ID : 7
Format : AC-3
Format/Info : Audio Coding 3
Commercial name : Dolby Digital
Codec ID : A_AC3
Duration : 2 h 12 min
Bit rate mode : Constant
Bit rate : 192 kb/s
Channel(s) : 1 channel
Channel layout : C
Sampling rate : 48.0 kHz
Frame rate : 31.250 FPS (1536 SPF)
Bit depth : 16 bits
Compression mode : Lossy
Delay relative to video : -42 ms
Stream size : 182 MiB (3%)
Title : Mono
Language : Portuguese
Service kind : Complete Main
Default : No
Forced : No

Text #1
ID : 8
Format : PGS
Muxing mode : zlib
Codec ID : S_HDMV/PGS
Codec ID/Info : Picture based subtitle format used on BDs/HD-DVDs
Language : English
Default : Yes
Forced : No

Text #2
ID : 9
Format : PGS
Muxing mode : zlib
Codec ID : S_HDMV/PGS
Codec ID/Info : Picture based subtitle format used on BDs/HD-DVDs
Language : French
Default : No
Forced : No

Text #3
ID : 10
Format : PGS
Muxing mode : zlib
Codec ID : S_HDMV/PGS
Codec ID/Info : Picture based subtitle format used on BDs/HD-DVDs
Language : German
Default : No
Forced : No

Text #4
ID : 11
Format : PGS
Muxing mode : zlib
Codec ID : S_HDMV/PGS
Codec ID/Info : Picture based subtitle format used on BDs/HD-DVDs
Language : Spanish
Default : No
Forced : No

Text #5
ID : 12
Format : PGS
Muxing mode : zlib
Codec ID : S_HDMV/PGS
Codec ID/Info : Picture based subtitle format used on BDs/HD-DVDs
Language : Spanish
Default : No
Forced : No

Text #6
ID : 13
Format : PGS
Muxing mode : zlib
Codec ID : S_HDMV/PGS
Codec ID/Info : Picture based subtitle format used on BDs/HD-DVDs
Language : Portuguese
Default : No
Forced : No

Text #7
ID : 14
Format : PGS
Muxing mode : zlib
Codec ID : S_HDMV/PGS
Codec ID/Info : Picture based subtitle format used on BDs/HD-DVDs
Language : Norwegian
Default : No
Forced : No

Text #8
ID : 15
Format : PGS
Muxing mode : zlib
Codec ID : S_HDMV/PGS
Codec ID/Info : Picture based subtitle format used on BDs/HD-DVDs
Language : Portuguese
Default : No
Forced : No

Menu
00:00:00.000 : en:Chapter 01
00:01:49.067 : en:Chapter 02
00:05:26.326 : en:Chapter 03
00:10:23.998 : en:Chapter 04
00:15:02.401 : en:Chapter 05
00:17:22.041 : en:Chapter 06
00:20:12.711 : en:Chapter 07
00:23:13.266 : en:Chapter 08
00:30:48.471 : en:Chapter 09
00:36:18.092 : en:Chapter 10
00:41:24.064 : en:Chapter 11
00:43:48.500 : en:Chapter 12
00:48:39.791 : en:Chapter 13
00:52:20.095 : en:Chapter 14
00:58:52.445 : en:Chapter 15
01:02:58.608 : en:Chapter 16
01:07:43.476 : en:Chapter 17
01:11:30.202 : en:Chapter 18
01:13:47.965 : en:Chapter 19
01:17:16.965 : en:Chapter 20
01:23:33.550 : en:Chapter 21
01:25:27.080 : en:Chapter 22
01:29:18.519 : en:Chapter 23
01:32:59.073 : en:Chapter 24
01:35:36.272 : en:Chapter 25
01:40:57.718 : en:Chapter 26
01:44:23.548 : en:Chapter 27
01:48:00.557 : en:Chapter 28
01:52:24.362 : en:Chapter 29
01:56:47.375 : en:Chapter 30
02:01:37.873 : en:Chapter 31
02:05:56.799 : en:Chapter 32
02:07:15.210 : en:Chapter 33
02:09:57.080 : en:Chapter 34
02:11:40.726 : en:Chapter 35



Screenshots 1080p (click to enlarge to original size):

Mutiny on the Bounty (1935)

Mutiny on the Bounty (1935)

Mutiny on the Bounty (1935)






If you like this release please visit my blog
In it you will find "Blu-Ray", "BDRip" releases in different languages