Murder Obsession (1981)

Murder Obsession (1981)

Murder Obsession (1981)
BDRip 1080p | MKV | 1920x1024 | AVC@9865 kb/s | English FLAC@375 kb/s
Subs: English | 2 channels | 1 h 31 min | 6.55 GB
Genre: Horror

Michael is a successful actor, but he has a scandal in his past: at a tender age he knifed his father to death. He and his girlfriend Deborah go to his mother's for the weekend, and are joined by the director and others from a recent film project, who are given a rather cool reception by the superstitious housekeeper Oliver. Soon rude things begin happening to some of the guests, and Michael fears a repeat of his nightmare past is in progress.



General
Unique ID : 213202642597265138781849744541380586503 (0xA06555DA281A023C8316F89562252C07)
Complete name : D:\A\Murder.Obsession.1981.ENGLiSH.VERSiON.1080p.BluRay.x264-SADPANDA.mkv
Format : Matroska
Format version : Version 4 / Version 2
File size : 6.55 GiB
Duration : 1 h 31 min
Overall bit rate mode : Variable
Overall bit rate : 10.2 Mb/s
Encoded date : UTC 2017-01-05 16:28:29
Writing application : mkvmerge v9.6.0 ('Slave To Your Mind') 64bit
Writing library : libebml v1.3.4 + libmatroska v1.4.5

Video
ID : 1
Format : AVC
Format/Info : Advanced Video Codec
Format profile : High@L4.1
Format settings, CABAC : Yes
Format settings, ReFrames : 4 frames
Codec ID : V_MPEG4/ISO/AVC
Duration : 1 h 31 min
Bit rate : 9 865 kb/s
Width : 1 920 pixels
Height : 1 024 pixels
Display aspect ratio : 1.85:1
Frame rate mode : Constant
Frame rate : 23.976 (24000/1001) FPS
Color space : YUV
Chroma subsampling : 4:2:0
Bit depth : 8 bits
Scan type : Progressive
Bits/(Pixel*Frame) : 0.209
Stream size : 6.31 GiB (96%)
Writing library : x264 core 148 r2744 b97ae06
Encoding settings : cabac=1 / ref=4 / deblock=1:-3:-3 / analyse=0x3:0x113 / me=umh / subme=8 / psy=1 / psy_rd=1.00:0.25 / mixed_ref=1 / me_range=24 / chroma_me=1 / trellis=1 / 8x8dct=1 / cqm=0 / deadzone=21,11 / fast_pskip=1 / chroma_qp_offset=-4 / threads=24 / lookahead_threads=4 / sliced_threads=0 / nr=0 / decimate=1 / interlaced=0 / bluray_compat=0 / constrained_intra=0 / bframes=3 / b_pyramid=2 / b_adapt=1 / b_bias=0 / direct=3 / weightb=1 / open_gop=0 / weightp=2 / keyint=240 / keyint_min=24 / scenecut=40 / intra_refresh=0 / rc_lookahead=50 / rc=2pass / mbtree=1 / bitrate=9865 / ratetol=1.0 / qcomp=0.60 / qpmin=0 / qpmax=69 / qpstep=4 / cplxblur=20.0 / qblur=0.5 / ip_ratio=1.40 / aq=1:0.75
Default : Yes
Forced : No

Audio
ID : 2
Format : FLAC
Format/Info : Free Lossless Audio Codec
Codec ID : A_FLAC
Duration : 1 h 31 min
Bit rate mode : Variable
Bit rate : 375 kb/s
Channel(s) : 2 channels
Channel positions : Front: L R
Sampling rate : 48.0 kHz
Frame rate : 11.719 FPS (4096 spf)
Bit depth : 16 bits
Stream size : 246 MiB (4%)
Writing library : libFLAC 1.2.1 (UTC 2007-09-17)
Language : English
Default : Yes
Forced : No

Text
ID : 3
Format : UTF-8
Codec ID : S_TEXT/UTF8
Codec ID/Info : UTF-8 Plain Text
Duration : 12 s 304 ms
Bit rate : 153 b/s
Count of elements : 4
Stream size : 236 Bytes (0%)
Title : Forced
Language : English
Default : Yes
Forced : No

Menu
00:00:00.000 : en:00:00:00.000
00:07:11.056 : en:00:07:11.056
00:14:41.339 : en:00:14:41.339
00:21:04.555 : en:00:21:04.555
00:27:11.547 : en:00:27:11.547
00:44:07.395 : en:00:44:07.395
00:53:46.265 : en:00:53:46.265
01:02:38.797 : en:01:02:38.797
01:08:39.699 : en:01:08:39.699
01:16:27.541 : en:01:16:27.541


BDRip 1080p Screenshots

Murder Obsession (1981)

Murder Obsession (1981)

Murder Obsession (1981)


Come Visit My Blog (•‿•)