Munster, Go Home! (1966)

Munster, Go Home! (1966)

Munster, Go Home! (1966)
WEB-DL 1080p | MKV | 1920x1040 | AVC@14.6 Mb/s | English AC3@224 kb/s
Subs: English | 2 channels | 1 h 36 min | 10.0 GB
Genre: Comedy, Crime, Family

The Munsters travel to England after Herman discovers he's the new Lord of the Munster Hall.



General
Munster.Go.Home.1966.1080p.AMZN.WEB-DL.DDP2.0.H.264-ABM\Munster.Go.Home.1966.1080p.AMZN.WEB-DL.DDP2.0.H.264-ABM.mkv
Format : Matroska
Format version : Version 4 / Version 2
File size : 10.0 GiB
Duration : 1 h 36 min
Overall bit rate mode : Variable
Overall bit rate : 14.8 Mb/s
Encoded date : UTC 2017-10-25 18:34:34
Writing application : mkvmerge v13.0.0 ('The Juggler') 64bit
Writing library : libebml v1.3.4 + libmatroska v1.4.5

Video
ID : 1
Format : AVC
Format/Info : Advanced Video Codec
Format profile : High@L4
Format settings, CABAC : Yes
Format settings, ReFrames : 4 frames
Codec ID : V_MPEG4/ISO/AVC
Duration : 1 h 36 min
Bit rate mode : Variable
Bit rate : 14.6 Mb/s
Maximum bit rate : 15.0 Mb/s
Width : 1 920 pixels
Height : 1 040 pixels
Display aspect ratio : 1.85:1
Frame rate mode : Constant
Frame rate : 23.976 (24000/1001) FPS
Color space : YUV
Chroma subsampling : 4:2:0
Bit depth : 8 bits
Scan type : Progressive
Bits/(Pixel*Frame) : 0.304
Stream size : 9.87 GiB (98%)
Default : Yes
Forced : No
Color range : Limited
Color primaries : BT.709
Transfer characteristics : BT.709
Matrix coefficients : BT.709

Audio
ID : 2
Format : E-AC-3
Format/Info : Enhanced Audio Coding 3
Format settings, Endianness : Big
Codec ID : A_EAC3
Duration : 1 h 36 min
Bit rate mode : Constant
Bit rate : 224 kb/s
Channel(s) : 2 channels
Channel positions : Front: L R
Sampling rate : 48.0 kHz
Frame rate : 187.500 FPS (256 spf)
Compression mode : Lossy
Stream size : 155 MiB (2%)
Language : English
Default : Yes
Forced : No

Text
ID : 3
Format : UTF-8
Codec ID : S_TEXT/UTF8
Codec ID/Info : UTF-8 Plain Text
Duration : 1 h 35 min
Bit rate : 57 b/s
Count of elements : 1213
Stream size : 40.4 KiB (0%)
Language : English
Default : No
Forced : No


WEB-DL 1080p Screenshots

Munster, Go Home! (1966)

Munster, Go Home! (1966)

Munster, Go Home! (1966)

Munster, Go Home! (1966)


Come Visit My Blog (•‿•)