Mr. Mom (1983)

Mr. Mom (1983)

Mr. Mom (1983)
BDRip 720p | MKV | 1280x696 | AVC@7055 kb/s | English DTS@1509 kb/s
Subs: English | 6 channels | 1 h 31 min | 5.46 GB
BDRip 1080p | MKV | 1920x1040 | AVC@13.9 Mb/s | English DTS@1509 kb/s
Subs: English | 6 channels | 1 h 31 min | 9.84 GB
Genre: Comedy, Drama

After he's laid off, a husband switches roles with his wife. She returns to the workforce, and he becomes a stay-at-home dad, a job he has no clue how to do.

IMDB - 1 win & 1 nomination


General
Mr.Mom.1983.720p.BluRay.X264-AMIABLE\Mr.Mom.1983.720p.BluRay.X264-AMIABLE.mkv
Format : Matroska
Format version : Version 4 / Version 2
File size : 5.46 GiB
Duration : 1 h 31 min
Overall bit rate : 8 565 kb/s
Encoded date : UTC 2010-02-22 21:41:29
Writing application : no_variable_data
Writing library : no_variable_data

Video
ID : 1
Format : AVC
Format/Info : Advanced Video Codec
Format profile : High@L4.1
Format settings, CABAC : Yes
Format settings, ReFrames : 5 frames
Codec ID : V_MPEG4/ISO/AVC
Duration : 1 h 31 min
Bit rate : 7 055 kb/s
Width : 1 280 pixels
Height : 696 pixels
Display aspect ratio : 1.85:1
Frame rate mode : Constant
Frame rate : 23.976 (24000/1001) FPS
Color space : YUV
Chroma subsampling : 4:2:0
Bit depth : 8 bits
Scan type : Progressive
Bits/(Pixel*Frame) : 0.330
Stream size : 4.39 GiB (80%)
Writing library : x264 core 152 r2851 ba24899
Encoding settings : cabac=1 / ref=5 / deblock=1:-3:-3 / analyse=0x3:0x113 / me=umh / subme=8 / psy=1 / psy_rd=1.10:0.00 / mixed_ref=1 / me_range=24 / chroma_me=1 / trellis=2 / 8x8dct=1 / cqm=0 / deadzone=21,11 / fast_pskip=1 / chroma_qp_offset=-2 / threads=22 / lookahead_threads=3 / sliced_threads=0 / nr=0 / decimate=1 / interlaced=0 / bluray_compat=0 / constrained_intra=0 / bframes=3 / b_pyramid=2 / b_adapt=2 / b_bias=0 / direct=3 / weightb=1 / open_gop=0 / weightp=2 / keyint=240 / keyint_min=24 / scenecut=40 / intra_refresh=0 / rc_lookahead=50 / rc=2pass / mbtree=1 / bitrate=7055 / ratetol=1.0 / qcomp=0.60 / qpmin=0 / qpmax=69 / qpstep=4 / cplxblur=20.0 / qblur=0.5 / ip_ratio=1.40 / aq=3:0.75
Default : Yes
Forced : No
Statistics Tags Issue : no_variable_data 1970-01-01 00:00:00 / no_variable_data 2010-02-22 21:41:29
FromStats_BitRate : 7053967
FromStats_Duration : 01:31:17.347000000
FromStats_FrameCount : 131325
FromStats_StreamSize : 4829628536

Audio
ID : 2
Format : DTS
Format/Info : Digital Theater Systems
Mode : 16
Format settings, Endianness : Big
Codec ID : A_DTS
Duration : 1 h 31 min
Bit rate mode : Constant
Bit rate : 1 509 kb/s
Channel(s) : 6 channels
Channel positions : Front: L C R, Side: L R, LFE
Sampling rate : 48.0 kHz
Frame rate : 93.750 FPS (512 spf)
Bit depth : 24 bits
Compression mode : Lossy
Stream size : 985 MiB (18%)
Language : English
Default : Yes
Forced : No
Statistics Tags Issue : no_variable_data 1970-01-01 00:00:00 / no_variable_data 2010-02-22 21:41:29
FromStats_BitRate : 1508999
FromStats_Duration : 01:31:18.027000000
FromStats_FrameCount : 513565
FromStats_StreamSize : 1033292780

Text #1
ID : 3
Format : UTF-8
Codec ID : S_TEXT/UTF8
Codec ID/Info : UTF-8 Plain Text
Language : English
Default : No
Forced : No
Statistics Tags Issue : no_variable_data 1970-01-01 00:00:00 / no_variable_data 2010-02-22 21:41:29
FromStats_BitRate : 66
FromStats_Duration : 01:27:17.773000000
FromStats_FrameCount : 1724
FromStats_StreamSize : 43457

Text #2
ID : 4
Format : UTF-8
Codec ID : S_TEXT/UTF8
Codec ID/Info : UTF-8 Plain Text
Title : SDH
Language : English
Default : No
Forced : No
Statistics Tags Issue : no_variable_data 1970-01-01 00:00:00 / no_variable_data 2010-02-22 21:41:29
FromStats_BitRate : 67
FromStats_Duration : 01:31:10.632000000
FromStats_FrameCount : 1888
FromStats_StreamSize : 46465

Menu
00:00:00.000 : en:00:00:00.000
00:07:22.567 : en:00:07:22.567
00:14:49.472 : en:00:14:49.472
00:23:23.402 : en:00:23:23.402
00:29:14.127 : en:00:29:14.127
00:35:42.307 : en:00:35:42.307
00:43:46.624 : en:00:43:46.624
00:51:49.064 : en:00:51:49.064
00:59:45.457 : en:00:59:45.457
01:07:52.777 : en:01:07:52.777
01:14:26.045 : en:01:14:26.045
01:25:03.557 : en:01:25:03.557

General
Mr.Mom.1983.1080p.BluRay.X264-AMIABLE\Mr.Mom.1983.1080p.BluRay.X264-AMIABLE.mkv
Format : Matroska
Format version : Version 4 / Version 2
File size : 9.84 GiB
Duration : 1 h 31 min
Overall bit rate : 15.4 Mb/s
Encoded date : UTC 2010-02-22 21:41:29
Writing application : no_variable_data
Writing library : no_variable_data

Video
ID : 1
Format : AVC
Format/Info : Advanced Video Codec
Format profile : High@L4.1
Format settings, CABAC : Yes
Format settings, ReFrames : 4 frames
Codec ID : V_MPEG4/ISO/AVC
Duration : 1 h 31 min
Bit rate : 13.9 Mb/s
Width : 1 920 pixels
Height : 1 040 pixels
Display aspect ratio : 1.85:1
Frame rate mode : Constant
Frame rate : 23.976 (24000/1001) FPS
Color space : YUV
Chroma subsampling : 4:2:0
Bit depth : 8 bits
Scan type : Progressive
Bits/(Pixel*Frame) : 0.291
Stream size : 8.68 GiB (88%)
Writing library : x264 core 152 r2851 ba24899
Encoding settings : cabac=1 / ref=4 / deblock=1:-3:-3 / analyse=0x3:0x113 / me=umh / subme=8 / psy=1 / psy_rd=1.10:0.00 / mixed_ref=1 / me_range=32 / chroma_me=1 / trellis=2 / 8x8dct=1 / cqm=0 / deadzone=21,11 / fast_pskip=1 / chroma_qp_offset=-2 / threads=24 / lookahead_threads=4 / sliced_threads=0 / nr=0 / decimate=1 / interlaced=0 / bluray_compat=0 / constrained_intra=0 / bframes=3 / b_pyramid=2 / b_adapt=2 / b_bias=0 / direct=3 / weightb=1 / open_gop=0 / weightp=2 / keyint=240 / keyint_min=24 / scenecut=40 / intra_refresh=0 / rc_lookahead=50 / rc=2pass / mbtree=1 / bitrate=13920 / ratetol=1.0 / qcomp=0.60 / qpmin=0 / qpmax=69 / qpstep=4 / cplxblur=20.0 / qblur=0.5 / ip_ratio=1.40 / aq=3:0.75
Default : Yes
Forced : No
Statistics Tags Issue : no_variable_data 1970-01-01 00:00:00 / no_variable_data 2010-02-22 21:41:29
FromStats_BitRate : 13917916
FromStats_Duration : 01:31:17.347000000
FromStats_FrameCount : 131325
FromStats_StreamSize : 9529157597

Audio
ID : 2
Format : DTS
Format/Info : Digital Theater Systems
Mode : 16
Format settings, Endianness : Big
Codec ID : A_DTS
Duration : 1 h 31 min
Bit rate mode : Constant
Bit rate : 1 509 kb/s
Channel(s) : 6 channels
Channel positions : Front: L C R, Side: L R, LFE
Sampling rate : 48.0 kHz
Frame rate : 93.750 FPS (512 spf)
Bit depth : 24 bits
Compression mode : Lossy
Stream size : 985 MiB (10%)
Language : English
Default : Yes
Forced : No
Statistics Tags Issue : no_variable_data 1970-01-01 00:00:00 / no_variable_data 2010-02-22 21:41:29
FromStats_BitRate : 1508999
FromStats_Duration : 01:31:18.027000000
FromStats_FrameCount : 513565
FromStats_StreamSize : 1033292780

Text #1
ID : 3
Format : UTF-8
Codec ID : S_TEXT/UTF8
Codec ID/Info : UTF-8 Plain Text
Language : English
Default : No
Forced : No
Statistics Tags Issue : no_variable_data 1970-01-01 00:00:00 / no_variable_data 2010-02-22 21:41:29
FromStats_BitRate : 66
FromStats_Duration : 01:27:17.773000000
FromStats_FrameCount : 1724
FromStats_StreamSize : 43457

Text #2
ID : 4
Format : UTF-8
Codec ID : S_TEXT/UTF8
Codec ID/Info : UTF-8 Plain Text
Title : SDH
Language : English
Default : No
Forced : No
Statistics Tags Issue : no_variable_data 1970-01-01 00:00:00 / no_variable_data 2010-02-22 21:41:29
FromStats_BitRate : 67
FromStats_Duration : 01:31:10.632000000
FromStats_FrameCount : 1888
FromStats_StreamSize : 46465

Menu
00:00:00.000 : en:00:00:00.000
00:07:22.567 : en:00:07:22.567
00:14:49.472 : en:00:14:49.472
00:23:23.402 : en:00:23:23.402
00:29:14.127 : en:00:29:14.127
00:35:42.307 : en:00:35:42.307
00:43:46.624 : en:00:43:46.624
00:51:49.064 : en:00:51:49.064
00:59:45.457 : en:00:59:45.457
01:07:52.777 : en:01:07:52.777
01:14:26.045 : en:01:14:26.045
01:25:03.557 : en:01:25:03.557


BDRip 720p Screenshots

Mr. Mom (1983)

Mr. Mom (1983)

Mr. Mom (1983)

Mr. Mom (1983)


BDRip 1080p Screenshots

Mr. Mom (1983)

Mr. Mom (1983)

Mr. Mom (1983)

Mr. Mom (1983)


Come Visit My Blog (•‿•)