Moulin Rouge (1952) [British Film Institute]

Moulin Rouge (1952) [British Film Institute]

Moulin Rouge (1952) [British Film Institute]
BDRip | MKV | AVC, 1480x1080, ~ 3.8 Mbps | 1hr 59mn | 3.62 GB
English: AC3, 2 ch, 256 kbps; English (Commentary): AC3, 2 ch, 256 kbps
Subtitles: English
Genre: Biography, Drama, Music
IMDB Rating: 6.6/10 (1.089 votes)


Director: John Huston
Writers: Pierre La Mure (novel), Anthony Veiller (screenplay)
Stars: José Ferrer, Zsa Zsa Gabor, Suzanne Flon

Film Distributor: BFI (British Film Institute)

A fictionalized account of the latter part of the life of French artist Henri de Toulouse Lautrec (1864-1901) is presented, he who is arguably most renowned professionally for immortalizing the characters of the Paris can-can dance hall, the Moulin Rouge, on canvas. This phase of his story begins in 1890. Born into aristocracy, Toulouse-Lautrec moves to Paris to pursue his art as he hangs out at the Moulin Rouge where he feels like he fits in being a misfit among other misfits. His misfit status is due to his diminutive physical stature, his legs which were broken and stopped growing following a childhood fall down some stairs. Because of the way he looks, he believes he is never destined to experience the true love of a woman. That lack of love in his life may change as he meets two women. The first is prostitute Marie Charlet, who he saves from imprisonment in a white knight act. Their relationship ends up being a turbulent one, the downs where each feels the need to hurt the other …

Extras:
- Commentary by Angela Allen (2019): the longstanding associate of John Huston and Moulin Rouge script supervisor discusses this film and many others across an eclectic career in this new commentary recorded specifically for this release




General
Unique ID : 233632822435738021388577880030422131539 (0xAFC40B7CBC668615BC3A554A40CA6353)
Complete name : F:\MoulinRouge.1952.BFI.1p\MoulinRouge.1952.BFI.1p.mkv
Format : Matroska
Format version : Version 4 / Version 2
File size : 3.62 GiB
Duration : 1 h 59 min
Overall bit rate : 4 327 kb/s
Movie name : Release RSU75
Encoded date : UTC 2019-12-19 03:46:32
Writing application : mkvmerge v6.6.0 ('The Edge Of The In Between') built on Dec 1 2013 17:55:00
Writing library : libebml v1.3.0 + libmatroska v1.4.1

Video
ID : 1
Format : AVC
Format/Info : Advanced Video Codec
Format profile : High@L4.1
Format settings : CABAC / 4 Ref Frames
Format settings, CABAC : Yes
Format settings, ReFrames : 4 frames
Codec ID : V_MPEG4/ISO/AVC
Duration : 1 h 59 min
Bit rate : 3 800 kb/s
Width : 1 480 pixels
Height : 1 080 pixels
Display aspect ratio : 1.370
Frame rate mode : Constant
Frame rate : 23.976 (23976/1000) FPS
Color space : YUV
Chroma subsampling : 4:2:0
Bit depth : 8 bits
Scan type : Progressive
Bits/(Pixel*Frame) : 0.099
Stream size : 3.12 GiB (86%)
Writing library : x264 core 148 r2643 5c65704
Encoding settings : cabac=1 / ref=4 / deblock=1:0:0 / analyse=0x3:0x113 / me=umh / subme=8 / psy=1 / psy_rd=1.00:0.00 / mixed_ref=1 / me_range=24 / chroma_me=1 / trellis=1 / 8x8dct=1 / cqm=0 / deadzone=21,11 / fast_pskip=1 / chroma_qp_offset=-2 / threads=3 / lookahead_threads=1 / sliced_threads=0 / nr=0 / decimate=1 / interlaced=0 / bluray_compat=0 / constrained_intra=0 / bframes=3 / b_pyramid=0 / b_adapt=2 / b_bias=0 / direct=3 / weightb=1 / open_gop=0 / weightp=2 / keyint=250 / keyint_min=25 / scenecut=40 / intra_refresh=0 / rc_lookahead=40 / rc=abr / mbtree=1 / bitrate=3800 / ratetol=1.0 / qcomp=0.60 / qpmin=10 / qpmax=51 / qpstep=4 / ip_ratio=1.41 / aq=1:1.00
Language : English
Default : Yes
Forced : No

Audio #1
ID : 2
Format : AC-3
Format/Info : Audio Coding 3
Commercial name : Dolby Digital
Codec ID : A_AC3
Duration : 1 h 59 min
Bit rate mode : Constant
Bit rate : 256 kb/s
Channel(s) : 2 channels
Channel layout : L R
Sampling rate : 44.1 kHz
Frame rate : 28.711 FPS (1536 SPF)
Bit depth : 16 bits
Compression mode : Lossy
Stream size : 220 MiB (6%)
Language : English
Service kind : Complete Main
Default : Yes
Forced : No

Audio #2
ID : 3
Format : AC-3
Format/Info : Audio Coding 3
Commercial name : Dolby Digital
Codec ID : A_AC3
Duration : 1 h 59 min
Bit rate mode : Constant
Bit rate : 256 kb/s
Channel(s) : 2 channels
Channel layout : L R
Sampling rate : 44.1 kHz
Frame rate : 28.711 FPS (1536 SPF)
Bit depth : 16 bits
Compression mode : Lossy
Stream size : 220 MiB (6%)
Language : English
Service kind : Complete Main
Default : No
Forced : No

Text
ID : 4
Format : PGS
Muxing mode : zlib
Codec ID : S_HDMV/PGS
Codec ID/Info : Picture based subtitle format used on BDs/HD-DVDs
Language : English
Default : Yes
Forced : No

Menu
00:00:00.000 : en:Chapter 01
00:10:47.355 : en:Chapter 02
00:19:19.032 : en:Chapter 03
00:28:48.810 : en:Chapter 04
00:39:30.701 : en:Chapter 05
00:50:54.301 : en:Chapter 06
01:02:05.513 : en:Chapter 07
01:12:19.168 : en:Chapter 08
01:20:11.014 : en:Chapter 09
01:30:08.778 : en:Chapter 10
01:39:37.680 : en:Chapter 11
01:47:43.707 : en:Chapter 12





Screenshots 1080p (click to enlarge to original size):

Moulin Rouge (1952) [British Film Institute]

Moulin Rouge (1952) [British Film Institute]

Moulin Rouge (1952) [British Film Institute]



–––––––––––––––––––––––––––––––––––––––-
>>> "BDRip" <<<OR >>> "Drama" <<<OR >>> "BFI (British Film Institute)" <<<
–––––––––––––––––––––––––––––––––––––––-
>>> Visit Blog RSU75 Here <<<
–––––––––––––––––––––––––––––––––––––––-