Moskovskaya elegiya (1987)

Moskovskaya elegiya (1987)

Moskovskaya elegiya (1987)
DVDRip | 512 x 384 | .AVI/XviD @ 1060 Kbps | 1 h 26 min | 699 MB
Audio: Russian MP3 64.0 Kbps, channel | Subs: None
Genre: Documentary, Biography, History, Art-house

Originally produced to mark the 50th birthday of Russian director Andrei Tarkovsky, the material for this stunning documentary was shot by Alexander Sokurov, director of Russian Ark and Tarkovsky’s spiritual heir. MOSCOW ELEGY is a subjective portrait of the legendary Tarkovsky (SOLARIS, STALKER, NOSTALGHIA), whose shadow looms large over Russian cinema, despite his exile to Western Europe at the end of his life.
Sokurov, who shot the film while working at Leningrad State Documentary Productions (LSDF), focuses on Tarkovsky’s absence from the then-Soviet Union and meditates on what he left behind. Using thematically representative scenes from Tarkovsky’s films, juxtaposed against political events in the Soviet Union, Sokurov captures the great director’s struggle between personal expression and state-supported suppression. The film also includes footage from Tarkovsky’s funeral.

More info: IMDB

also You can find my last: Russia-posts

General
Complete name : Moskovskaya.Elegiya.avi
Format : AVI
Format/Info : Audio Video Interleave
File size : 699 MiB
Duration : 1 h 26 min
Overall bit rate : 1 133 kb/s
Writing application : VirtualDubMod 1.5.10.1 (build 2439/release)
Writing library : VirtualDubMod build 2439/release

Video
ID : 0
Format : MPEG-4 Visual
Format profile : Advanced Simple@L5
Format settings, BVOP : 2
Format settings, QPel : No
Format settings, GMC : No warppoints
Format settings, Matrix : Default (H.263)
Muxing mode : Packed bitstream
Codec ID : XVID
Codec ID/Hint : XviD
Duration : 1 h 26 min
Bit rate : 1 060 kb/s
Width : 512 pixels
Height : 384 pixels
Display aspect ratio : 4:3
Frame rate : 25.000 FPS
Original frame rate : 24.975 (25000/1001) FPS
Color space : YUV
Chroma subsampling : 4:2:0
Bit depth : 8 bits
Scan type : Progressive
Compression mode : Lossy
Bits/(Pixel*Frame) : 0.216
Stream size : 654 MiB (93%)
Writing library : XviD 1.1.2 (UTC 2006-11-01)

Audio
ID : 1
Format : MPEG Audio
Format version : Version 1
Format profile : Layer 3
Codec ID : 55
Codec ID/Hint : MP3
Duration : 1 h 26 min
Bit rate mode : Constant
Bit rate : 64.0 kb/s
Channel(s) : 1 channel
Sampling rate : 48.0 kHz
Compression mode : Lossy
Stream size : 39.5 MiB (6%)
Alignment : Aligned on interleaves
Interleave, duration : 40 ms (1.00 video frame)
Interleave, preload duration : 504 ms
Screenshots

Moskovskaya elegiya (1987)

Moskovskaya elegiya (1987)

Moskovskaya elegiya (1987)

Moskovskaya elegiya (1987)

Moskovskaya elegiya (1987)

Welcome to my blog - daily update!

Moskovskaya elegiya (1987)