Moonstruck (1987) [Criterion Collection]

Moonstruck (1987) [Criterion Collection]

Moonstruck (1987) [Criterion Collection, Spine #1056]
DVDRip | MKV | AVC 720x460, ~ 1.6 Mbps | 1hr 42mn | 1.59 GB
English: AC3, 6 ch, 448 kbps \ English: AC3, 2 ch, 192 kbps
Subtitles: English
Genre: Comedy, Drama, Romance



Director: Norman Jewison
Writer: John Patrick Shanley
Stars: Cher, Nicolas Cage, Olympia Dukakis

A full moon, a New York City night, and love and music in the air . . . One of the most enchanting romantic comedies of all time assembles a flawless ensemble cast for a tender and boisterously funny look at a multigenerational Italian American family in Brooklyn, wrestling with the complexities of love and marriage at every stage of life. At the center of it all is a radiant Cher as Loretta, an unlucky-in-love bookkeeper whose feelings about her engagement to the staid Johnny (Danny Aiello) are thrown into question after she meets his hot-blooded brother, Ronny (Nicolas Cage), and one night at the opera changes everything. Winner of the Academy Awards for best actress (Cher), supporting actress (Olympia Dukakis), and original screenplay (by playwright John Patrick Shanley), this modern-day fairy tale is swept along on passionate Puccini melodies, and directed by master storyteller Norman Jewison with the heightened emotion to match.

Extras:
- Audio commentary from 1998 with Cher, Jewison, and Shanley




General
Unique ID : 194294560134219272773523007156835753509 (0x922BC569645891ABB3445E241C229E25)
Complete name : F:\Moonstruck.1987.Cr.Dr\Moonstruck.1987.Cr.Dr.mkv
Format : Matroska
Format version : Version 4
File size : 1.59 GiB
Duration : 1 h 42 min
Overall bit rate : 2 235 kb/s
Movie name : Release RSU75
Encoded date : UTC 2020-11-20 18:22:05
Writing application : mkvmerge v6.6.0 ('The Edge Of The In Between') built on Dec 1 2013 17:55:00
Writing library : libebml v1.3.0 + libmatroska v1.4.1

Video
ID : 1
Format : AVC
Format/Info : Advanced Video Codec
Format profile : High@L4.1
Format settings : CABAC / 4 Ref Frames
Format settings, CABAC : Yes
Format settings, Reference fra : 4 frames
Codec ID : V_MPEG4/ISO/AVC
Duration : 1 h 42 min
Bit rate : 1 600 kb/s
Width : 720 pixels
Height : 460 pixels
Display aspect ratio : 1.85:1
Frame rate mode : Constant
Frame rate : 23.976 (23976/1000) FPS
Color space : YUV
Chroma subsampling : 4:2:0
Bit depth : 8 bits
Scan type : Progressive
Bits/(Pixel*Frame) : 0.201
Stream size : 1.11 GiB (69%)
Writing library : x264 core 148 r2643 5c65704
Encoding settings : cabac=1 / ref=4 / deblock=1:0:0 / analyse=0x3:0x113 / me=umh / subme=8 / psy=1 / psy_rd=1.00:0.00 / mixed_ref=1 / me_range=24 / chroma_me=1 / trellis=1 / 8x8dct=1 / cqm=0 / deadzone=21,11 / fast_pskip=1 / chroma_qp_offset=-2 / threads=3 / lookahead_threads=1 / sliced_threads=0 / nr=0 / decimate=1 / interlaced=0 / bluray_compat=0 / constrained_intra=0 / bframes=3 / b_pyramid=0 / b_adapt=2 / b_bias=0 / direct=3 / weightb=1 / open_gop=0 / weightp=2 / keyint=250 / keyint_min=25 / scenecut=40 / intra_refresh=0 / rc_lookahead=40 / rc=abr / mbtree=1 / bitrate=1600 / ratetol=1.0 / qcomp=0.60 / qpmin=10 / qpmax=51 / qpstep=4 / ip_ratio=1.41 / aq=1:1.00
Language : English
Default : Yes
Forced : No
Duration_Source : General_Duration

Audio #1
ID : 2
Format : AC-3
Format/Info : Audio Coding 3
Commercial name : Dolby Digital
Codec ID : A_AC3
Duration : 1 h 42 min
Bit rate mode : Constant
Bit rate : 448 kb/s
Channel(s) : 6 channels
Channel layout : L R C LFE Ls Rs
Sampling rate : 48.0 kHz
Frame rate : 31.250 FPS (1536 SPF)
Compression mode : Lossy
Stream size : 327 MiB (20%)
Title : Surround 5.1
Language : English
Service kind : Complete Main
Default : Yes
Forced : No
Duration_Source : General_Duration

Audio #2
ID : 3
Format : AC-3
Format/Info : Audio Coding 3
Commercial name : Dolby Digital
Codec ID : A_AC3
Duration : 1 h 42 min
Bit rate mode : Constant
Bit rate : 192 kb/s
Channel(s) : 2 channels
Channel layout : L R
Sampling rate : 48.0 kHz
Frame rate : 31.250 FPS (1536 SPF)
Compression mode : Lossy
Stream size : 140 MiB (9%)
Title : Stereo
Language : English
Service kind : Complete Main
Default : No
Forced : No
Duration_Source : General_Duration

Text
ID : 4
Format : VobSub
Muxing mode : zlib
Codec ID : S_VOBSUB
Codec ID/Info : Picture based subtitle format used on DVDs
Language : English
Default : Yes
Forced : No

Menu
00:00:00.000 : en:Chapter 01
00:12:38.758 : en:Chapter 02
00:18:58.137 : en:Chapter 03
00:25:41.206 : en:Chapter 04
00:31:30.722 : en:Chapter 05
00:40:15.696 : en:Chapter 06
00:47:55.539 : en:Chapter 07
00:57:48.298 : en:Chapter 08
01:07:14.697 : en:Chapter 09
01:14:44.813 : en:Chapter 10
01:19:28.630 : en:Chapter 11
01:25:35.797 : en:Chapter 12



Screenshots DVDRip (click to enlarge to original size):

Moonstruck (1987) [Criterion Collection]



All thanks to the original uploader



More in My Blog



If you like this release please visit my blog
In it you will find ALL the latest Criterion Collection releases