Moonfleet (1955)

Moonfleet (1955)

Moonfleet (1955)
BDRip 720p | MKV | 1 h 26 min | 4.37 GB | 1280x504 | AVC@5696 kb/s | English DTS@1509 kb/s, 2 ch
BDRip 1080p | MKV | 1 h 26 min | 8.74 GB | 1920x752 | AVC@12.9 Mb/s | English DTS@1509 kb/s, 2 ch
Subs: English
Genre: Adventure | Drama

A young orphan is sent to the village of Moonfleet, in Dorset, England to stay with his mother's former lover, who has the facade of a gentleman but is a leader of a gang of swashbuckling bootleggers. The duo went on a treasure hunt.



General
Moonfleet.1955.720p.BluRay.x264-CiNEFiLE.mkv
Format : Matroska
Format version : Version 4 / Version 2
File size : 4.37 GB
Duration : 1 h 26 min
Overall bit rate : 7207 kb/s
Encoded date : UTC 2019-09-08 20:26:46
Writing application : mkvmerge v21.0.0 ('Tardigrades Will Inherit The Earth') 64-bit
Writing library : libebml v1.3.5 + libmatroska v1.4.8

Video
ID : 1
Format : AVC
Format/Info : Advanced Video Codec
Format profile : High@L4.1
Format settings, CABAC : Yes
Format settings, ReFrames : 9 frames
Codec ID : V_MPEG4/ISO/AVC
Duration : 1 h 26 min
Bit rate : 5696 kb/s
Width : 1280 pixels
Height : 504 pixels
Display aspect ratio : 2.540
Frame rate mode : Constant
Frame rate : 23.976 (24000/1001) FPS
Color space : YUV
Chroma subsampling : 4:2:0
Bit depth : 8 bits
Scan type : Progressive
Bits/(Pixel*Frame) : 0.368
Stream size : 3.45 GB (79%)
Writing library : x264 core 158 r2984 3759fcb
Encoding settings : cabac=1 / ref=9 / deblock=1:-3:-3 / analyse=0x3:0x113 / me=umh / subme=8 / psy=1 / psy_rd=1.00:0.00 / mixed_ref=1 / me_range=16 / chroma_me=1 / trellis=1 / 8x8dct=1 / cqm=0 / deadzone=21,11 / fast_pskip=0 / chroma_qp_offset=-2 / threads=16 / lookahead_threads=2 / sliced_threads=0 / nr=0 / decimate=1 / interlaced=0 / bluray_compat=0 / constrained_intra=0 / bframes=3 / b_pyramid=2 / b_adapt=1 / b_bias=0 / direct=1 / weightb=1 / open_gop=0 / weightp=2 / keyint=250 / keyint_min=23 / scenecut=40 / intra_refresh=0 / rc_lookahead=40 / rc=2pass / mbtree=1 / bitrate=5696 / ratetol=1.0 / qcomp=0.60 / qpmin=0 / qpmax=69 / qpstep=4 / cplxblur=20.0 / qblur=0.5 / ip_ratio=1.40 / aq=1:1.00
Language : English
Default : Yes
Forced : No

Audio
ID : 2
Format : DTS
Format/Info : Digital Theater Systems
Mode : 16
Format settings, Endianness : Big
Codec ID : A_DTS
Duration : 1 h 26 min
Bit rate mode : Constant
Bit rate : 1509 kb/s
Channel(s) : 2 channels
Channel positions : Front: L R
Sampling rate : 48.0 kHz
Frame rate : 93.750 FPS (512 spf)
Bit depth : 24 bits
Compression mode : Lossy
Stream size : 937 MB (21%)
Language : English
Default : Yes
Forced : No

Text #1
ID : 3
Format : UTF-8
Codec ID : S_TEXT/UTF8
Codec ID/Info : UTF-8 Plain Text
Duration : 1 h 23 min
Bit rate : 49 b/s
Count of elements : 987
Stream size : 30.6 KiB (0%)
Language : English
Default : No
Forced : No

Text #2
ID : 4
Format : UTF-8
Codec ID : S_TEXT/UTF8
Codec ID/Info : UTF-8 Plain Text
Duration : 1 h 26 min
Bit rate : 53 b/s
Count of elements : 1145
Stream size : 33.6 KiB (0%)
Title : SDH
Language : English
Default : No
Forced : No

Menu
00:00:00.000 : en:00:00:00.000
00:01:39.099 : en:00:01:39.099
00:02:17.304 : en:00:02:17.304
00:03:20.033 : en:00:03:20.033
00:04:42.574 : en:00:04:42.574
00:09:56.221 : en:00:09:56.221
00:11:10.670 : en:00:11:10.670
00:14:20.109 : en:00:14:20.109
00:18:21.726 : en:00:18:21.726
00:20:21.053 : en:00:20:21.053
00:24:13.869 : en:00:24:13.869
00:29:11.750 : en:00:29:11.750
00:33:06.943 : en:00:33:06.943
00:38:12.499 : en:00:38:12.499
00:41:21.813 : en:00:41:21.813
00:44:54.567 : en:00:44:54.567
00:48:36.122 : en:00:48:36.122
00:52:48.916 : en:00:52:48.916
00:57:31.490 : en:00:57:31.490
01:01:35.859 : en:01:01:35.859
01:07:59.450 : en:01:07:59.450
01:12:32.098 : en:01:12:32.098
01:17:25.057 : en:01:17:25.057
01:21:23.629 : en:01:21:23.629
01:26:05.160 : en:01:26:05.160


General
Moonfleet.1955.1080p.BluRay.x264-CiNEFiLE.mkv
Format : Matroska
Format version : Version 4 / Version 2
File size : 8.74 GB
Duration : 1 h 26 min
Overall bit rate : 14.4 Mb/s
Encoded date : UTC 2019-09-08 20:29:47
Writing application : mkvmerge v21.0.0 ('Tardigrades Will Inherit The Earth') 64-bit
Writing library : libebml v1.3.5 + libmatroska v1.4.8

Video
ID : 1
Format : AVC
Format/Info : Advanced Video Codec
Format profile : High@L4.1
Format settings, CABAC : Yes
Format settings, ReFrames : 5 frames
Codec ID : V_MPEG4/ISO/AVC
Duration : 1 h 26 min
Bit rate : 12.9 Mb/s
Width : 1920 pixels
Height : 752 pixels
Display aspect ratio : 2.553
Frame rate mode : Constant
Frame rate : 23.976 (24000/1001) FPS
Color space : YUV
Chroma subsampling : 4:2:0
Bit depth : 8 bits
Scan type : Progressive
Bits/(Pixel*Frame) : 0.373
Stream size : 7.83 GB (90%)
Writing library : x264 core 158 r2984 3759fcb
Encoding settings : cabac=1 / ref=5 / deblock=1:-3:-3 / analyse=0x3:0x113 / me=umh / subme=8 / psy=1 / psy_rd=1.00:0.00 / mixed_ref=1 / me_range=16 / chroma_me=1 / trellis=2 / 8x8dct=1 / cqm=0 / deadzone=21,11 / fast_pskip=0 / chroma_qp_offset=-2 / threads=23 / lookahead_threads=3 / sliced_threads=0 / nr=0 / decimate=1 / interlaced=0 / bluray_compat=0 / constrained_intra=0 / bframes=3 / b_pyramid=2 / b_adapt=1 / b_bias=0 / direct=1 / weightb=1 / open_gop=0 / weightp=2 / keyint=250 / keyint_min=23 / scenecut=40 / intra_refresh=0 / rc_lookahead=40 / rc=2pass / mbtree=1 / bitrate=12904 / ratetol=1.0 / qcomp=0.60 / qpmin=0 / qpmax=69 / qpstep=4 / cplxblur=20.0 / qblur=0.5 / ip_ratio=1.40 / aq=1:1.00
Language : English
Default : Yes
Forced : No

Audio
ID : 2
Format : DTS
Format/Info : Digital Theater Systems
Mode : 16
Format settings, Endianness : Big
Codec ID : A_DTS
Duration : 1 h 26 min
Bit rate mode : Constant
Bit rate : 1509 kb/s
Channel(s) : 2 channels
Channel positions : Front: L R
Sampling rate : 48.0 kHz
Frame rate : 93.750 FPS (512 spf)
Bit depth : 24 bits
Compression mode : Lossy
Stream size : 937 MB (10%)
Language : English
Default : Yes
Forced : No

Text #1
ID : 3
Format : UTF-8
Codec ID : S_TEXT/UTF8
Codec ID/Info : UTF-8 Plain Text
Duration : 1 h 23 min
Bit rate : 49 b/s
Count of elements : 987
Stream size : 30.6 KiB (0%)
Language : English
Default : No
Forced : No

Text #2
ID : 4
Format : UTF-8
Codec ID : S_TEXT/UTF8
Codec ID/Info : UTF-8 Plain Text
Duration : 1 h 26 min
Bit rate : 53 b/s
Count of elements : 1145
Stream size : 33.6 KiB (0%)
Title : SDH
Language : English
Default : No
Forced : No

Menu
00:00:00.000 : en:00:00:00.000
00:01:39.099 : en:00:01:39.099
00:02:17.304 : en:00:02:17.304
00:03:20.033 : en:00:03:20.033
00:04:42.574 : en:00:04:42.574
00:09:56.221 : en:00:09:56.221
00:11:10.670 : en:00:11:10.670
00:14:20.109 : en:00:14:20.109
00:18:21.726 : en:00:18:21.726
00:20:21.053 : en:00:20:21.053
00:24:13.869 : en:00:24:13.869
00:29:11.750 : en:00:29:11.750
00:33:06.943 : en:00:33:06.943
00:38:12.499 : en:00:38:12.499
00:41:21.813 : en:00:41:21.813
00:44:54.567 : en:00:44:54.567
00:48:36.122 : en:00:48:36.122
00:52:48.916 : en:00:52:48.916
00:57:31.490 : en:00:57:31.490
01:01:35.859 : en:01:01:35.859
01:07:59.450 : en:01:07:59.450
01:12:32.098 : en:01:12:32.098
01:17:25.057 : en:01:17:25.057
01:21:23.629 : en:01:21:23.629
01:26:05.160 : en:01:26:05.160



BDRip 720p Screenshots

Moonfleet (1955)

Moonfleet (1955)

Moonfleet (1955)


BDRip 1080p Screenshots

Moonfleet (1955)

Moonfleet (1955)

Moonfleet (1955)


Come Visit My Blog (•‿•)