Monster on the Campus (1958)

Monster on the Campus (1958)

Monster on the Campus (1958)
BDRip | MKV | 1280x688 | English | H264 @ 5761 kbps | FLAC @ 366 kbps | 1 h 16 min | 3.28 GiB
Subtitles: English
Genre: Horror, Science Fiction

A college paleontology professor acquires a newly discovered specimen of a coelecanth, but while examining it, he is accidentally exposed to its blood, and finds himself periodically turning into a murderous Neanderthal man.

47ca6d3217afcda18d899a20901dccc5.mkv (3.3 GB)



General
Unique ID : 206325167579151791744394644156976079604 (0x9B38C827763CDD7FB2DBA792DF3E22F4)
Complete name : ./47ca6d3217afcda18d899a20901dccc5.mkv
Format : Matroska
Format version : Version 4 / Version 2
File size : 3.28 GiB
Duration : 1 h 16 min
Overall bit rate mode : Variable
Overall bit rate : 6 129 kb/s
Encoded date : UTC 2020-01-12 15:32:45
Writing application : mkvmerge v9.0.1 ('Obstacles') 64bit
Writing library : libebml v1.3.3 + libmatroska v1.4.4

Video
ID : 1
Format : AVC
Format/Info : Advanced Video Codec
Format profile : High@L4.1
Format settings : CABAC / 5 Ref Frames
Format settings, CABAC : Yes
Format settings, RefFrames : 5 frames
Codec ID : V_MPEG4/ISO/AVC
Duration : 1 h 16 min
Bit rate : 5 761 kb/s
Width : 1 280 pixels
Height : 688 pixels
Display aspect ratio : 1.85:1
Frame rate mode : Constant
Frame rate : 23.976 (24000/1001) FPS
Color space : YUV
Chroma subsampling : 4:2:0
Bit depth : 8 bits
Scan type : Progressive
Bits/(Pixel*Frame) : 0.273
Stream size : 3.08 GiB (94%)
Writing library : x264 core 159 r2991 1771b55
Encoding settings : cabac=1 / ref=5 / deblock=1:0:0 / analyse=0x3:0x113 / me=umh / subme=8 / psy=1 / psy_rd=1.00:0.00 / mixed_ref=1 / me_range=16 / chroma_me=1 / trellis=2 / 8x8dct=1 / cqm=0 / deadzone=21,11 / fast_pskip=0 / chroma_qp_offset=-2 / threads=18 / lookahead_threads=3 / sliced_threads=0 / nr=0 / decimate=1 / interlaced=0 / bluray_compat=0 / constrained_intra=0 / bframes=3 / b_pyramid=2 / b_adapt=1 / b_bias=0 / direct=1 / weightb=1 / open_gop=0 / weightp=2 / keyint=250 / keyint_min=23 / scenecut=40 / intra_refresh=0 / rc_lookahead=50 / rc=2pass / mbtree=1 / bitrate=5761 / ratetol=1.0 / qcomp=0.60 / qpmin=0 / qpmax=69 / qpstep=4 / cplxblur=20.0 / qblur=0.5 / ip_ratio=1.40 / aq=1:1.00
Default : Yes
Forced : No

Audio
ID : 2
Format : FLAC
Format/Info : Free Lossless Audio Codec
Codec ID : A_FLAC
Duration : 1 h 16 min
Bit rate mode : Variable
Bit rate : 366 kb/s
Channel(s) : 2 channels
Channel positions : Front: L R
Sampling rate : 48.0 kHz
Frame rate : 11.719 FPS (4096 SPF)
Bit depth : 16 bits
Stream size : 200 MiB (6%)
Writing library : libFLAC 1.2.1 (UTC 2007-09-17)
Language : English
Default : No
Forced : No

Text
ID : 3
Format : UTF-8
Codec ID : S_TEXT/UTF8
Codec ID/Info : UTF-8 Plain Text
Duration : 1 h 14 min
Bit rate : 65 b/s
Count of elements : 871
Stream size : 35.7 KiB (0%)
Title : English Fullsubs
Language : English
Default : No
Forced : No

Menu
00:00:00.000 : en:00:00:00.000
00:01:11.613 : en:00:01:11.613
00:06:05.240 : en:00:06:05.240
00:11:39.407 : en:00:11:39.407
00:15:12.745 : en:00:15:12.745
00:18:21.851 : en:00:18:21.851
00:22:12.957 : en:00:22:12.957
00:29:17.881 : en:00:29:17.881
00:33:54.157 : en:00:33:54.157
00:39:20.525 : en:00:39:20.525
00:43:39.575 : en:00:43:39.575
00:50:05.878 : en:00:50:05.878
00:56:05.612 : en:00:56:05.612
01:03:11.579 : en:01:03:11.579
01:09:47.767 : en:01:09:47.767
01:12:46.571 : en:01:12:46.571





Monster on the Campus (1958)


Monster on the Campus (1958)


Monster on the Campus (1958)


Monster on the Campus (1958)


Monster on the Campus (1958)