Mister 880 (1950)

Mister 880 (1950)

Mister 880 (1950)
WEB-DL 1080p | MKV | 1440x1080 | AVC@15.0 Mb/s | English AC3@224 kb/s
Subs: English | 2 channels | 1 h 29 min | 9.47 GB
Genre: Comedy, Crime, Romance

Gentle romantic comedy about a Secret Service Agent trying to catch a cold case counterfeiter and a United Nations translator.

IMDB - Nominated for 1 Oscar. Another 2 wins.


General
Mister.880.1950.1080p.WEBRip.DD2.0.x264-SbR\Mister.880.1950.1080p.WEB-DL.DD2.0.H.264-SbR.mkv
Format : Matroska
Format version : Version 2
File size : 9.47 GiB
Duration : 1 h 29 min
Overall bit rate mode : Variable
Overall bit rate : 15.1 Mb/s
Encoded date : UTC 2017-11-21 20:57:55
Writing application : mkvmerge v18.0.0 ('Apricity') 64-bit
Writing library : libebml v1.3.5 + libmatroska v1.4.8
Cover : Yes
Attachments : cover.jpg

Video
ID : 1
Format : AVC
Format/Info : Advanced Video Codec
Format profile : High@L4
Format settings, CABAC : Yes
Format settings, ReFrames : 4 frames
Codec ID : V_MPEG4/ISO/AVC
Duration : 1 h 29 min
Bit rate mode : Variable
Bit rate : 15.0 Mb/s
Width : 1 440 pixels
Height : 1 080 pixels
Display aspect ratio : 4:3
Frame rate mode : Constant
Frame rate : 23.976 (24000/1001) FPS
Color space : YUV
Chroma subsampling : 4:2:0
Bit depth : 8 bits
Scan type : Progressive
Bits/(Pixel*Frame) : 0.402
Stream size : 9.32 GiB (98%)
Language : English
Default : Yes
Forced : No
Color range : Limited
Color primaries : BT.709
Transfer characteristics : BT.709
Matrix coefficients : BT.709

Audio
ID : 2
Format : E-AC-3
Format/Info : Enhanced Audio Coding 3
Format settings, Endianness : Big
Codec ID : A_EAC3
Duration : 1 h 29 min
Bit rate mode : Constant
Bit rate : 224 kb/s
Channel(s) : 2 channels
Channel positions : Front: L R
Sampling rate : 48.0 kHz
Frame rate : 187.500 FPS (256 spf)
Compression mode : Lossy
Stream size : 144 MiB (1%)
Language : English
Default : Yes
Forced : No

Text #1
ID : 3
Format : UTF-8
Codec ID : S_TEXT/UTF8
Codec ID/Info : UTF-8 Plain Text
Duration : 1 h 27 min
Bit rate : 70 b/s
Count of elements : 1451
Stream size : 45.2 KiB (0%)
Language : English
Default : No
Forced : No

Text #2
ID : 4
Format : UTF-8
Codec ID : S_TEXT/UTF8
Codec ID/Info : UTF-8 Plain Text
Duration : 1 h 29 min
Bit rate : 72 b/s
Count of elements : 1566
Stream size : 47.5 KiB (0%)
Title : SDH
Language : English
Default : No
Forced : No

Menu
00:00:00.000 : en:Chapter 1
00:10:00.868 : en:Chapter 2
00:20:01.468 : en:Chapter 3
00:30:02.068 : en:Chapter 4
00:40:02.668 : en:Chapter 5
00:50:03.268 : en:Chapter 6
01:00:03.899 : en:Chapter 7
01:10:04.499 : en:Chapter 8
01:20:05.099 : en:Chapter 9


WEB-DL 1080p Screenshots

Mister 880 (1950)

Mister 880 (1950)

Mister 880 (1950)

Mister 880 (1950)


Come Visit My Blog (•‿•)