Zerkalo / The Mirror / Зеркало (1975)

Zerkalo / The Mirror / Зеркало (1975)

Zerkalo / The Mirror / Зеркало (1975) [Curzon Artificial Eye]
BDRip 1080p | MKV | AVC, 1556x1080, ~ 3.8 Mbps | 1hr 47mn | 3.16 GB | Russian (Русский): AC3, 2 ch, 448 kbps
BDRip 720p | MKV | AVC, 1036x720, ~ 2.6 Mbps | 1hr 47mn | 2.13 GB | Russian (Русский): AC3, 2 ch, 256 kbps
Subtitles: English
Genre: Biography, Drama
IMDB Rating: 8.2/10 (22.279 votes)


Director: Andrey Tarkovskiy
Writers: Aleksandr Misharin (as A. Misharin), Andrei Tarkovsky (as Andrey Tarkovskiy)
Stars: Margarita Terekhova, Filipp Yankovskiy, Ignat Daniltsev

Tarkovsky mixes flash-backs, historical footage and original poetry to illustrate the reminiscences of a dying man about his childhood during World War II, adolescence, and a painful divorce in his family. The story interweaves reflections about Russian history and society.




General
Unique ID : 235825552006469231940712985846012899356 (0xB16A5966E18F1A9BA26A8AD95C0AF01C)
Complete name : F:\Mirror.1974.CAE.1p\Mirror.1974.CAE.1p.mkv
Format : Matroska
Format version : Version 4 / Version 2
File size : 3.16 GiB
Duration : 1 h 47 min
Overall bit rate : 4 230 kb/s
Movie name : Release RSU75
Encoded date : UTC 2019-11-29 03:20:26
Writing application : mkvmerge v6.6.0 ('The Edge Of The In Between') built on Dec 1 2013 17:55:00
Writing library : libebml v1.3.0 + libmatroska v1.4.1

Video
ID : 1
Format : AVC
Format/Info : Advanced Video Codec
Format profile : High@L4.1
Format settings : CABAC / 4 Ref Frames
Format settings, CABAC : Yes
Format settings, ReFrames : 4 frames
Codec ID : V_MPEG4/ISO/AVC
Duration : 1 h 47 min
Bit rate : 3 800 kb/s
Width : 1 556 pixels
Height : 1 080 pixels
Display aspect ratio : 1.441
Frame rate mode : Constant
Frame rate : 23.976 (23976/1000) FPS
Color space : YUV
Chroma subsampling : 4:2:0
Bit depth : 8 bits
Scan type : Progressive
Bits/(Pixel*Frame) : 0.094
Stream size : 2.76 GiB (87%)
Writing library : x264 core 148 r2643 5c65704
Encoding settings : cabac=1 / ref=4 / deblock=1:0:0 / analyse=0x3:0x113 / me=umh / subme=8 / psy=1 / psy_rd=1.00:0.00 / mixed_ref=1 / me_range=24 / chroma_me=1 / trellis=1 / 8x8dct=1 / cqm=0 / deadzone=21,11 / fast_pskip=1 / chroma_qp_offset=-2 / threads=3 / lookahead_threads=1 / sliced_threads=0 / nr=0 / decimate=1 / interlaced=0 / bluray_compat=0 / constrained_intra=0 / bframes=3 / b_pyramid=0 / b_adapt=2 / b_bias=0 / direct=3 / weightb=1 / open_gop=0 / weightp=2 / keyint=250 / keyint_min=25 / scenecut=40 / intra_refresh=0 / rc_lookahead=40 / rc=abr / mbtree=1 / bitrate=3800 / ratetol=1.0 / qcomp=0.60 / qpmin=10 / qpmax=51 / qpstep=4 / ip_ratio=1.41 / aq=1:1.00
Language : English
Default : Yes
Forced : No

Audio
ID : 2
Format : AC-3
Format/Info : Audio Coding 3
Commercial name : Dolby Digital
Codec ID : A_AC3
Duration : 1 h 47 min
Bit rate mode : Constant
Bit rate : 448 kb/s
Channel(s) : 2 channels
Channel layout : L R
Sampling rate : 44.1 kHz
Frame rate : 28.711 FPS (1536 SPF)
Bit depth : 16 bits
Compression mode : Lossy
Stream size : 343 MiB (11%)
Language : English
Service kind : Complete Main
Default : Yes
Forced : No

Text
ID : 3
Format : PGS
Muxing mode : zlib
Codec ID : S_HDMV/PGS
Codec ID/Info : Picture based subtitle format used on BDs/HD-DVDs
Language : English
Default : Yes
Forced : No

Menu
00:00:00.000 : en:Chapter 01
00:14:46.635 : en:Chapter 02
00:22:20.088 : en:Chapter 03
00:34:36.199 : en:Chapter 04
00:42:37.972 : en:Chapter 05
00:52:02.452 : en:Chapter 06
00:58:58.660 : en:Chapter 07
01:08:27.561 : en:Chapter 08
01:20:34.162 : en:Chapter 09
01:32:56.279 : en:Chapter 10
01:37:38.978 : en:Chapter 11
01:46:07.194 : en:Chapter 12





General
Unique ID : 195540524916113899833569005604723815131 (0x931BBC37E22BAA89B175BC9ADA08F2DB)
Complete name : F:\Mirror.1974.CAE.7p\Mirror.1974.CAE.7p.mkv
Format : Matroska
Format version : Version 4 / Version 2
File size : 2.13 GiB
Duration : 1 h 47 min
Overall bit rate : 2 847 kb/s
Movie name : Release RSU75
Encoded date : UTC 2019-11-29 03:02:03
Writing application : mkvmerge v6.6.0 ('The Edge Of The In Between') built on Dec 1 2013 17:55:00
Writing library : libebml v1.3.0 + libmatroska v1.4.1

Video
ID : 1
Format : AVC
Format/Info : Advanced Video Codec
Format profile : High@L4.1
Format settings : CABAC / 4 Ref Frames
Format settings, CABAC : Yes
Format settings, ReFrames : 4 frames
Codec ID : V_MPEG4/ISO/AVC
Duration : 1 h 47 min
Bit rate : 2 600 kb/s
Width : 1 036 pixels
Height : 720 pixels
Display aspect ratio : 1.438
Original display aspect rat : 1.437
Frame rate mode : Constant
Frame rate : 23.976 (23976/1000) FPS
Color space : YUV
Chroma subsampling : 4:2:0
Bit depth : 8 bits
Scan type : Progressive
Bits/(Pixel*Frame) : 0.145
Stream size : 1.89 GiB (89%)
Writing library : x264 core 148 r2643 5c65704
Encoding settings : cabac=1 / ref=4 / deblock=1:0:0 / analyse=0x3:0x113 / me=umh / subme=8 / psy=1 / psy_rd=1.00:0.00 / mixed_ref=1 / me_range=24 / chroma_me=1 / trellis=1 / 8x8dct=1 / cqm=0 / deadzone=21,11 / fast_pskip=1 / chroma_qp_offset=-2 / threads=3 / lookahead_threads=1 / sliced_threads=0 / nr=0 / decimate=1 / interlaced=0 / bluray_compat=0 / constrained_intra=0 / bframes=3 / b_pyramid=0 / b_adapt=2 / b_bias=0 / direct=3 / weightb=1 / open_gop=0 / weightp=2 / keyint=250 / keyint_min=25 / scenecut=40 / intra_refresh=0 / rc_lookahead=40 / rc=abr / mbtree=1 / bitrate=2600 / ratetol=1.0 / qcomp=0.60 / qpmin=10 / qpmax=51 / qpstep=4 / ip_ratio=1.41 / aq=1:1.00
Language : English
Default : Yes
Forced : No

Audio
ID : 2
Format : AC-3
Format/Info : Audio Coding 3
Commercial name : Dolby Digital
Codec ID : A_AC3
Duration : 1 h 47 min
Bit rate mode : Constant
Bit rate : 256 kb/s
Channel(s) : 2 channels
Channel layout : L R
Sampling rate : 44.1 kHz
Frame rate : 28.711 FPS (1536 SPF)
Bit depth : 16 bits
Compression mode : Lossy
Stream size : 196 MiB (9%)
Language : English
Service kind : Complete Main
Default : Yes
Forced : No

Text
ID : 3
Format : PGS
Muxing mode : zlib
Codec ID : S_HDMV/PGS
Codec ID/Info : Picture based subtitle format used on BDs/HD-DVDs
Language : English
Default : Yes
Forced : No

Menu
00:00:00.000 : en:Chapter 01
00:14:46.635 : en:Chapter 02
00:22:20.088 : en:Chapter 03
00:34:36.199 : en:Chapter 04
00:42:37.972 : en:Chapter 05
00:52:02.452 : en:Chapter 06
00:58:58.660 : en:Chapter 07
01:08:27.561 : en:Chapter 08
01:20:34.162 : en:Chapter 09
01:32:56.279 : en:Chapter 10
01:37:38.978 : en:Chapter 11
01:46:07.194 : en:Chapter 12




Screenshots 1080p (click to enlarge to original size):

Zerkalo / The Mirror / Зеркало (1975)

Zerkalo / The Mirror / Зеркало (1975)

Zerkalo / The Mirror / Зеркало (1975)



Screenshots 720p (click to enlarge to original size):

Zerkalo / The Mirror / Зеркало (1975)