Frida Kahlo (1982)

Frida Kahlo (1982)

Frida Kahlo (1982)
DVD5 | VIDEO_TS | PAL 4:3 | 720 x 576 | VBR | ~ 62 mins | 3.85 GB
Audio: English, Russian AC-3 192 Kbps, 2 channels | Subs: Russian
Genre: Documentary, Biography, Art, Surrealism

This award-winning documentary (Montreal International Festival of Films - Best Biography of an Artist) provides a stirring look at the life and times of Mexico's most famous woman painter, Frida Kahlo. Although the film is old, with simple editing techniques, it eloquently portrays the artist's life in the famous "Blue House" outside of Mexico City that she shared with her husband, the famous muralist and painter Diego Rivera. A near fatal bus accident, years of traumatic surgery, and endless heartache left Frida Kahlo devastated, relentlessly transferring her physical and emotional pain to the canvas. Readings from her diaries, archival photographs, and film footage offer an intimate portrait of one of the most astonishing figures of the twentieth century. Narrated by Sada Thompson and commentary written by Hayden Herrera, this documentary explores Kahlo as the center of the Mexican renaissance of the 1920s and 1930s. Not just as an artist, but as a tragic figure as it follows her painting career, her growing interest in politics and her turbulent relationship with her husband, Diego.

General
Complete name : Mirovoe.iskusstvo.Frida.Kalo.1982.DVD-5\VIDEO_TS\VTS_04_1.VOB
Format : MPEG-PS
File size : 1 024 MiB
Duration : 17 min 51 s
Overall bit rate : 8 019 kb/s

Video
ID : 224 (0xE0)
Format : MPEG Video
Format version : Version 2
Format profile : Main@Main
Format settings, BVOP : Yes
Format settings, Matrix : Custom
Format settings, GOP : Variable
Format settings, picture structure : Frame
Duration : 17 min 51 s
Bit rate mode : Constant
Bit rate : 7 500 kb/s
Width : 720 pixels
Height : 576 pixels
Display aspect ratio : 4:3
Frame rate : 25.000 FPS
Standard : PAL
Color space : YUV
Chroma subsampling : 4:2:0
Bit depth : 8 bits
Scan type : Interlaced
Scan order : Top Field First
Compression mode : Lossy
Bits/(Pixel*Frame) : 0.723
Time code of first frame : 01:00:00:00
Time code source : Group of pictures header
GOP, Open/Closed : Open
GOP, Open/Closed of first frame : Closed
Stream size : 955 MiB (93%)

Audio #1
ID : 189 (0xBD)-128 (0x80)
Format : AC-3
Format/Info : Audio Coding 3
Format settings, Endianness : Big
Muxing mode : DVD-Video
Duration : 17 min 50 s
Bit rate mode : Constant
Bit rate : 192 kb/s
Channel(s) : 2 channels
Channel positions : Front: L R
Sampling rate : 48.0 kHz
Frame rate : 31.250 FPS (1536 spf)
Bit depth : 16 bits
Compression mode : Lossy
Stream size : 24.5 MiB (2%)
Service kind : Complete Main

Audio #2
ID : 189 (0xBD)-129 (0x81)
Format : AC-3
Format/Info : Audio Coding 3
Format settings, Endianness : Big
Muxing mode : DVD-Video
Duration : 17 min 50 s
Bit rate mode : Constant
Bit rate : 192 kb/s
Channel(s) : 2 channels
Channel positions : Front: L R
Sampling rate : 48.0 kHz
Frame rate : 31.250 FPS (1536 spf)
Bit depth : 16 bits
Compression mode : Lossy
Stream size : 24.5 MiB (2%)
Service kind : Complete Main

Text
ID : 189 (0xBD)-32 (0x20)
Format : RLE
Format/Info : Run-length encoding
Muxing mode : DVD-Video
Duration : 17 min 50 s

Menu
Duration : 17 min 50 s
Screenshots

Frida Kahlo (1982)

Frida Kahlo (1982)

Frida Kahlo (1982)

Welcome to my blog - daily update!