Meet Me in St. Louis (1944)

Meet Me in St. Louis (1944)

Meet Me in St. Louis (1944)
BDRip | MKV | 1472x1080 | English | H264 @ 10000 kbps | DTS @ 1509 kbps | 1 h 52 min | 9.16 GiB
Subtitles: Spanish, French, English
Genre: Comedy, Music, Romance

In the year before the 1904 St Louis World's Fair, the four Smith daughters learn lessons of life and love, even as they prepare for a reluctant move to New York.

Meet.Me.In.St.Louis.1944.1080p.BluRay.x264-BARC0DE=f91b13478ec14a94943d05adb5e7210d.part1.rar (4.8 GB)
Meet.Me.In.St.Louis.1944.1080p.BluRay.x264-BARC0DE=f91b13478ec14a94943d05adb5e7210d.part2.rar (4.4 GB)



General
Unique ID : 245772281522093107387078566430461411306 (0xB8E60507AD102438852BCC2778F83FEA)
Complete name : ./Meet.Me.In.St.Louis.1944.1080p.BluRay.x264-BARC0DE.mkv
Format : Matroska
Format version : Version 2
File size : 9.16 GiB
Duration : 1 h 52 min
Overall bit rate : 11.6 Mb/s
Encoded date : UTC 2014-12-27 19:51:11
Writing application : mkvmerge v5.8.0 ('No Sleep / Pillow') built on Sep 2 2012 15:37:04
Writing library : libebml v1.2.3 + libmatroska v1.3.0

Video
ID : 1
Format : AVC
Format/Info : Advanced Video Codec
Format profile : High@L4.1
Format settings : CABAC / 4 Ref Frames
Format settings, CABAC : Yes
Format settings, RefFrames : 4 frames
Muxing mode : Header stripping
Codec ID : V_MPEG4/ISO/AVC
Duration : 1 h 52 min
Bit rate : 10 000 kb/s
Width : 1 472 pixels
Height : 1 080 pixels
Display aspect ratio : 4:3
Frame rate mode : Constant
Frame rate : 23.976 (24000/1001) FPS
Color space : YUV
Chroma subsampling : 4:2:0
Bit depth : 8 bits
Scan type : Progressive
Bits/(Pixel*Frame) : 0.262
Stream size : 7.79 GiB (85%)
Writing library : x264 core 142 r2479 dd79a61
Encoding settings : cabac=1 / ref=3 / deblock=1:0:0 / analyse=0x3:0x113 / me=hex / subme=7 / psy=1 / psy_rd=1.00:0.00 / mixed_ref=1 / me_range=16 / chroma_me=1 / trellis=1 / 8x8dct=1 / cqm=0 / deadzone=21,11 / fast_pskip=1 / chroma_qp_offset=-2 / threads=12 / lookahead_threads=2 / sliced_threads=0 / nr=0 / decimate=1 / interlaced=0 / bluray_compat=0 / constrained_intra=0 / bframes=3 / b_pyramid=2 / b_adapt=1 / b_bias=0 / direct=1 / weightb=1 / open_gop=0 / weightp=2 / keyint=240 / keyint_min=24 / scenecut=40 / intra_refresh=0 / rc_lookahead=40 / rc=abr / mbtree=1 / bitrate=10000 / ratetol=1.0 / qcomp=0.60 / qpmin=0 / qpmax=69 / qpstep=4 / vbv_maxrate=62500 / vbv_bufsize=78125 / nal_hrd=none / filler=0 / ip_ratio=1.40 / aq=1:1.00
Default : Yes
Forced : No
Color range : Limited
Color primaries : BT.709
Transfer characteristics : BT.709
Matrix coefficients : BT.709

Audio
ID : 2
Format : DTS
Format/Info : Digital Theater Systems
Mode : 16
Format settings, Endianness : Big
Muxing mode : Header stripping
Codec ID : A_DTS
Duration : 1 h 52 min
Bit rate mode : Constant
Bit rate : 1 509 kb/s
Channel(s) : 5 channels
Channel positions : Front: L C R, Side: L R
Sampling rate : 48.0 kHz
Frame rate : 93.750 FPS (512 SPF)
Bit depth : 24 bits
Compression mode : Lossy
Delay relative to video : -83 ms
Stream size : 1.19 GiB (13%)
Title : Surround
Language : English
Default : Yes
Forced : No

Text #1
ID : 3
Format : PGS
Muxing mode : zlib
Codec ID : S_HDMV/PGS
Codec ID/Info : Picture based subtitle format used on BDs/HD-DVDs
Language : English
Default : No
Forced : No

Text #2
ID : 4
Format : PGS
Muxing mode : zlib
Codec ID : S_HDMV/PGS
Codec ID/Info : Picture based subtitle format used on BDs/HD-DVDs
Language : French
Default : No
Forced : No

Text #3
ID : 5
Format : PGS
Muxing mode : zlib
Codec ID : S_HDMV/PGS
Codec ID/Info : Picture based subtitle format used on BDs/HD-DVDs
Language : Spanish
Default : No
Forced : No

Text #4
ID : 6
Format : PGS
Muxing mode : zlib
Codec ID : S_HDMV/PGS
Codec ID/Info : Picture based subtitle format used on BDs/HD-DVDs
Language : French
Default : No
Forced : No

Text #5
ID : 7
Format : PGS
Muxing mode : zlib
Codec ID : S_HDMV/PGS
Codec ID/Info : Picture based subtitle format used on BDs/HD-DVDs
Language : Spanish
Default : No
Forced : No

Menu
00:00:00.000 : :Chapter 1
00:01:43.854 : :Chapter 2
00:04:52.751 : :Chapter 3
00:08:40.770 : :Chapter 4
00:12:06.059 : :Chapter 5
00:15:35.768 : :Chapter 6
00:18:25.229 : :Chapter 7
00:22:40.734 : :Chapter 8
00:26:55.697 : :Chapter 9
00:29:12.501 : :Chapter 10
00:32:12.973 : :Chapter 11
00:33:41.686 : :Chapter 12
00:36:15.131 : :Chapter 13
00:41:04.962 : :Chapter 14
00:43:49.168 : :Chapter 15
00:48:46.215 : :Chapter 16
00:52:08.167 : :Chapter 17
00:58:10.862 : :Chapter 18
01:02:47.555 : :Chapter 19
01:05:15.995 : :Chapter 20
01:07:46.646 : :Chapter 21
01:12:27.593 : :Chapter 22
01:15:37.658 : :Chapter 23
01:19:11.872 : :Chapter 24
01:24:14.591 : :Chapter 25
01:28:20.962 : :Chapter 26
01:34:50.643 : :Chapter 27
01:37:47.361 : :Chapter 28
01:39:17.743 : :Chapter 29
01:42:05.077 : :Chapter 30
01:44:45.362 : :Chapter 31
01:49:01.994 : :Chapter 32





Meet Me in St. Louis (1944)


Meet Me in St. Louis (1944)


Meet Me in St. Louis (1944)


Meet Me in St. Louis (1944)


Meet Me in St. Louis (1944)