Meantime (1984)

Meantime (1984)

Meantime (1984)
BDRip 720p | MKV | 1200x720 | AVC@10.9 Mb/s | English FLAC@251 kb/s
Subs: English | 1 channel | 1 h 47 min | 8.37 GB
Genre: Comedy, Drama

An odd film, primarily looking at how the dole affects the underclass in Britain. Tim Roth stars as Colin, a slow and possibly intellectually disabled man living with his parents and brother in a housing project. He and his sarcastic manipulative brother still behave like teenagers, living with their parents, harassing each other. The problem is that they are in their late teens or twenties. Neighborhood characters include Hayley, a young woman with a crush on Colin, and Coxy (Gary Oldman) a violent local skinhead who befriends Colin. Trouble ensues when their wealthy aunt gives Colin a job and his brother becomes jealous.

IMDB - 1 win & 1 nomination


General
Meantime.1984.720p.BluRay.FLAC1.0.x264-SbR\Meantime 1984 720p BluRay FLAC1.0 x264-SbR.mkv
Format : Matroska
Format version : Version 4 / Version 2
File size : 8.37 GiB
Duration : 1 h 47 min
Overall bit rate mode : Variable
Overall bit rate : 11.2 Mb/s
Encoded date : UTC 2017-08-10 18:52:25
Writing application : mkvmerge v14.0.0 ('Flow') 64bit
Writing library : libebml v1.3.4 + libmatroska v1.4.5
Cover : Yes
Attachments : cover.jpg

Video
ID : 1
Format : AVC
Format/Info : Advanced Video Codec
Format profile : High@L4.1
Format settings, CABAC : Yes
Format settings, ReFrames : 9 frames
Codec ID : V_MPEG4/ISO/AVC
Duration : 1 h 47 min
Bit rate : 10.9 Mb/s
Width : 1 200 pixels
Height : 720 pixels
Display aspect ratio : 5:3
Frame rate mode : Constant
Frame rate : 23.976 (24000/1001) FPS
Color space : YUV
Chroma subsampling : 4:2:0
Bit depth : 8 bits
Scan type : Progressive
Bits/(Pixel*Frame) : 0.526
Stream size : 8.18 GiB (98%)
Writing library : x264 core 152 r2851+58 429492e t_mod_Custom [8-bit@all X86_64]
Encoding settings : cabac=1 / ref=9 / deblock=1:-3:-3 / analyse=0x3:0x133 / me=umh / subme=10 / psy=1 / fade_compensate=0.00 / psy_rd=1.00:0.00 / mixed_ref=1 / me_range=24 / chroma_me=1 / trellis=2 / 8x8dct=1 / cqm=0 / deadzone=21,11 / fast_pskip=0 / chroma_qp_offset=-2 / threads=6 / lookahead_threads=1 / sliced_threads=0 / nr=0 / decimate=1 / interlaced=0 / bluray_compat=0 / constrained_intra=0 / fgo=0 / bframes=10 / b_pyramid=2 / b_adapt=2 / b_bias=0 / direct=3 / weightb=1 / open_gop=0 / weightp=2 / keyint=250 / keyint_min=23 / scenecut=40 / intra_refresh=0 / rc_lookahead=60 / rc=crf / mbtree=0 / crf=18.0000 / qcomp=0.60 / qpmin=0:0:0 / qpmax=69:69:69 / qpstep=4 / vbv_maxrate=62500 / vbv_bufsize=78125 / crf_max=0.0 / nal_hrd=none / filler=0 / ip_ratio=1.35 / pb_ratio=1.25 / aq=1:0.65 / aq-sensitivity=10.00 / aq-factor=1.00:1.00:1.00 / aq2=0 / aq3=0
Language : English
Default : Yes
Forced : No
Color range : Limited
Color primaries : BT.709
Transfer characteristics : BT.709
Matrix coefficients : BT.709

Audio
ID : 2
Format : FLAC
Format/Info : Free Lossless Audio Codec
Codec ID : A_FLAC
Duration : 1 h 47 min
Bit rate mode : Variable
Bit rate : 251 kb/s
Channel(s) : 1 channel
Channel positions : Front: C
Sampling rate : 48.0 kHz
Frame rate : 11.719 FPS (4096 spf)
Bit depth : 16 bits
Stream size : 193 MiB (2%)
Writing library : libFLAC 1.2.1 (UTC 2007-09-17)
Language : English
Default : Yes
Forced : No

Text #1
ID : 3
Format : UTF-8
Codec ID : S_TEXT/UTF8
Codec ID/Info : UTF-8 Plain Text
Duration : 1 h 43 min
Bit rate : 62 b/s
Count of elements : 1496
Stream size : 47.3 KiB (0%)
Language : English
Default : No
Forced : No

Text #2
ID : 4
Format : UTF-8
Codec ID : S_TEXT/UTF8
Codec ID/Info : UTF-8 Plain Text
Duration : 1 h 43 min
Bit rate : 65 b/s
Count of elements : 1543
Stream size : 49.9 KiB (0%)
Title : SDH
Language : English
Default : No
Forced : No

Menu
00:00:00.000 : en:Good boys
00:09:15.138 : en:"more work for us"
00:13:47.618 : en:Pastimes
00:23:18.022 : en:Out of order
00:28:37.841 : en:Empty threats
00:33:59.537 : en:One of the lads
00:42:42.143 : en:Unwanted
00:49:02.398 : en:A job for colin
00:55:29.618 : en:An anthill
01:04:12.807 : en:A no-show
01:12:15.289 : en:Princess Anne
01:17:15.422 : en:Principles
01:23:29.963 : en:Picture of happiness
01:29:58.810 : en:A hard day's work
01:40:27.355 : en:Between brathers


BDRip 720p Screenshots

Meantime (1984)

Meantime (1984)

Meantime (1984)

Meantime (1984)


Come Visit My Blog (•‿•)