Martin Scorsese Presents: Masterpieces of Polish Cinema Volume 1. The Constant Factor / Constans (1980)

Martin Scorsese Presents: Masterpieces of Polish Cinema Volume 1. The Constant Factor / Constans (1980)

Martin Scorsese Presents: Masterpieces of Polish Cinema Volume 1. The Constant Factor / Constans (1980)
BDRip | MKV | AVC 1280x720, ~ 3.0 Mbps | 1hr 30mn | 2.32 GB
Polish: AC3, 6 ch, 640 kbps
Subtitles(PGS): English, French
Genre: Drama
IMDB Rating: 7.2/10 (284 votes)


Martin Scorsese Presents: Masterpieces of Polish Cinema Volume 1. The Constant Factor / Constans (1980)

In December 2011, filmmaker Martin Scorsese travelled to Poland to accept an honorary degree from The Polish National Film, Television and Theatre School in Lodz. During his stay in Poland, he met with Jedrzej Sablinski (a digital restoration expert, now DI Factory CEO), and discussed the digital restoration in Poland achieved within the KinoRP project. In the months following this visit, with the help of The Film Foundation executive director Margaret Bodde and The Digital Film Repository CEO Maciej Molewski (now with all DOTS), the idea of a North American tour of a series of restored Polish classics came together. From an extensive catalogue, Martin Scorsese chose twenty-one masterpieces.
Premiering in New York City at the Film Society of Lincoln Center on February the 5th, 2014, the series featured films from some of Poland's most accomplished and lauded filmmakers, spanning the period from 1957-1987. Each film has been brilliantly restored and digitally remastered to 2K resolution, and brought to the standards of DCP distribution. The program was created by Martin Scorsese's non-profit organisation The Film Foundation, organised in partnership with the National Audiovisual Institute of Poland, and with the support of the Ministry of Culture and National Heritage of the Republic of Poland, the Polish Film Institute as well as Kadr, Tor and Zebra film studios.

Martin Scorsese Presents: Masterpieces of Polish Cinema Volume 1. The Constant Factor / Constans (1980)

The Constant Factor / Constans (1980)

Director: Krzysztof Zanussi
Writers: Krzysztof Zanussi
Stars: Tadeusz Bradecki, Zofia Mrozowska, Malgorzata Zajaczkowska

A young man is facing death of his mother. A petty corruption at his job leads to him being framed and robbed of his only desire to climb mountains in Himalayas, as his father did and where he died.




General
Unique ID : 234524956655180759376843423711805714778 (0xB06FDD19A9ACAF5B862165B46492315A)
Complete name : L:\MasterpiecesPolishCinema1.Constans.7p\MasterpiecesPolishCinema1.Constans.7p.mkv
Format : Matroska
Format version : Version 4 / Version 2
File size : 2.32 GiB
Duration : 1 h 30 min
Overall bit rate : 3 664 kb/s
Movie name : Release RSU75
Encoded date : UTC 2016-12-20 04:03:25
Writing application : mkvmerge v6.6.0 ('The Edge Of The In Between') built on Dec 1 2013 17:55:00
Writing library : libebml v1.3.0 + libmatroska v1.4.1

Video
ID : 1
Format : AVC
Format/Info : Advanced Video Codec
Format profile : Baseline@L3.1
Format settings, CABAC : No
Format settings, ReFrames : 1 frame
Codec ID : V_MPEG4/ISO/AVC
Duration : 1 h 30 min
Bit rate : 2 989 kb/s
Width : 1 280 pixels
Height : 720 pixels
Display aspect ratio : 16:9
Frame rate mode : Constant
Frame rate : 24.000 FPS
Color space : YUV
Chroma subsampling : 4:2:0
Bit depth : 8 bits
Scan type : Progressive
Bits/(Pixel*Frame) : 0.135
Stream size : 1.87 GiB (81%)
Writing library : x264 core 144 r2533 c8a773e
Encoding settings : cabac=0 / ref=1 / deblock=1:0:0 / analyse=0x1:0x111 / me=hex / subme=7 / psy=1 / psy_rd=1.00:0.00 / mixed_ref=0 / me_range=16 / chroma_me=1 / trellis=1 / 8x8dct=0 / cqm=0 / deadzone=21,11 / fast_pskip=1 / chroma_qp_offset=-2 / threads=3 / lookahead_threads=1 / sliced_threads=0 / nr=0 / decimate=1 / interlaced=0 / bluray_compat=0 / constrained_intra=0 / bframes=0 / weightp=0 / keyint=250 / keyint_min=25 / scenecut=40 / intra_refresh=0 / rc_lookahead=40 / rc=abr / mbtree=1 / bitrate=2989 / ratetol=1.0 / qcomp=0.60 / qpmin=10 / qpmax=51 / qpstep=4 / ip_ratio=1.41 / aq=1:1.00
Language : Polish
Default : Yes
Forced : No

Audio
ID : 2
Format : AC-3
Format/Info : Audio Coding 3
Mode extension : CM (complete main)
Format settings, Endianness : Big
Codec ID : A_AC3
Duration : 1 h 30 min
Bit rate mode : Constant
Bit rate : 640 kb/s
Channel(s) : 6 channels
Channel positions : Front: L C R, Side: L R, LFE
Sampling rate : 48.0 kHz
Frame rate : 31.250 FPS (1536 spf)
Compression mode : Lossy
Delay relative to video : -5 ms
Stream size : 415 MiB (17%)
Language : Polish
Default : Yes
Forced : No

Text #1
ID : 3
Format : PGS
Muxing mode : zlib
Codec ID : S_HDMV/PGS
Codec ID/Info : Picture based subtitle format used on BDs/HD-DVDs
Title : PGS
Language : English
Default : Yes
Forced : No

Text #2
ID : 4
Format : PGS
Muxing mode : zlib
Codec ID : S_HDMV/PGS
Codec ID/Info : Picture based subtitle format used on BDs/HD-DVDs
Title : PGS
Language : French
Default : No
Forced : No




Screenshots (click to enlarge to original size):

Martin Scorsese Presents: Masterpieces of Polish Cinema Volume 1. The Constant Factor / Constans (1980)

Martin Scorsese Presents: Masterpieces of Polish Cinema Volume 1. The Constant Factor / Constans (1980)

Martin Scorsese Presents: Masterpieces of Polish Cinema Volume 1. The Constant Factor / Constans (1980)

Martin Scorsese Presents: Masterpieces of Polish Cinema Volume 1. The Constant Factor / Constans (1980)

Martin Scorsese Presents: Masterpieces of Polish Cinema Volume 1. The Constant Factor / Constans (1980)



–––––––––––––––––––––––––––––––––––––––-
>>> Other BDRip <<< OR >>> "Martin Scorsese" <<<
–––––––––––––––––––––––––––––––––––––––-
>>> Visit Blog RSU75 Here <<<
–––––––––––––––––––––––––––––––––––––––-