Marty (1955) [Eureka!]

Marty (1955) [Eureka!]

Marty (1955) [Eureka!]
BDRip 1080p | MKV | AVC, 1440x1080, ~ 3.7 Mbps | 1hr 29mn | 2.60 GB | English: AC3, 2 ch, 448 kbps
BDRip 720p | MKV | AVC, 960x720, ~ 2.5 Mbps | 1hr 29mn | 1.73 GB | English: AC3, 2 ch, 256 kbps
Subtitles: English
Genre: Drama, Romance



Director: Delbert Mann
Writer: Paddy Chayefsky (story), Paddy Chayefsky (screenplay)
Stars: Ernest Borgnine, Betsy Blair, Esther Minciotti

A beloved classic of American cinema, Delbert Mann’s Marty was the first ever recipient of the Palme d’Or at the 1955 Cannes Film Festival, as well as the winner of the Academy Award for Best Picture, one of only two films to ever win both organisations’ grand prizes (the second being Billy Wilder’s The Lost Weekend).

“I’ve been looking for a girl every Saturday night of my life,” says Marty Piletti (Ernest Borgnine, The Vikings, Violent Saturday). Yet, despite all his efforts, this 34-year old Bronx butcher remains as shy and uncomfortable around women today as on the day he was born. So when he meets Clara (Betsy Blair, Il Grido), a lonely schoolteacher who’s just as smitten with him as he is with her, Marty’s on top of the world. But not everyone around him shares his joy. And when his friends and family continually find fault with Clara, even Marty begins to question his newfound love… until he discovers, in an extraordinary way, the strength and courage to follow his heart.

Adapted from an earlier teleplay (also included with this release) written by renowned screenwriter Paddy Chayefsky (Network), Eureka Classics is proud to present Marty in a special Dual Format edition, that includes the film on Blu-ray for the first time in the UK.

Extras:
- Marty (51 mins) – The original teleplay broadcast on NBC in 1953, also directed by Delbert Mann and starring Rod Steiger in the title role




General
Unique ID : 177305029633237161466583791914878560993 (0x8563B4E2D3D1D6CB98E31B39F8BCEAE1)
Complete name : F:\Marty.1955.Eureka.1p\Marty.1955.Eureka.1p.mkv
Format : Matroska
Format version : Version 4
File size : 2.60 GiB
Duration : 1 h 29 min
Overall bit rate : 4 158 kb/s
Movie name : Release RSU75
Encoded date : UTC 2020-09-20 13:32:19
Writing application : mkvmerge v6.6.0 ('The Edge Of The In Between') built on Dec 1 2013 17:55:00
Writing library : libebml v1.3.0 + libmatroska v1.4.1

Video
ID : 1
Format : AVC
Format/Info : Advanced Video Codec
Format profile : High@L4.1
Format settings : CABAC / 4 Ref Frames
Format settings, CABAC : Yes
Format settings, Reference fra : 4 frames
Codec ID : V_MPEG4/ISO/AVC
Duration : 1 h 29 min
Bit rate : 3 700 kb/s
Width : 1 440 pixels
Height : 1 080 pixels
Display aspect ratio : 4:3
Frame rate mode : Constant
Frame rate : 23.976 (23976/1000) FPS
Color space : YUV
Chroma subsampling : 4:2:0
Bit depth : 8 bits
Scan type : Progressive
Bits/(Pixel*Frame) : 0.099
Stream size : 2.27 GiB (87%)
Writing library : x264 core 148 r2643 5c65704
Encoding settings : cabac=1 / ref=4 / deblock=1:0:0 / analyse=0x3:0x113 / me=umh / subme=8 / psy=1 / psy_rd=1.00:0.00 / mixed_ref=1 / me_range=24 / chroma_me=1 / trellis=1 / 8x8dct=1 / cqm=0 / deadzone=21,11 / fast_pskip=1 / chroma_qp_offset=-2 / threads=3 / lookahead_threads=1 / sliced_threads=0 / nr=0 / decimate=1 / interlaced=0 / bluray_compat=0 / constrained_intra=0 / bframes=3 / b_pyramid=0 / b_adapt=2 / b_bias=0 / direct=3 / weightb=1 / open_gop=0 / weightp=2 / keyint=250 / keyint_min=25 / scenecut=40 / intra_refresh=0 / rc_lookahead=40 / rc=abr / mbtree=1 / bitrate=3700 / ratetol=1.0 / qcomp=0.60 / qpmin=10 / qpmax=51 / qpstep=4 / ip_ratio=1.41 / aq=1:1.00
Language : English
Default : Yes
Forced : No
Duration_Source : General_Duration

Audio
ID : 2
Format : AC-3
Format/Info : Audio Coding 3
Commercial name : Dolby Digital
Codec ID : A_AC3
Duration : 1 h 29 min
Bit rate mode : Constant
Bit rate : 448 kb/s
Channel(s) : 2 channels
Channel layout : L R
Sampling rate : 44.1 kHz
Frame rate : 28.711 FPS (1536 SPF)
Compression mode : Lossy
Stream size : 287 MiB (11%)
Title : Stereo
Language : English
Service kind : Complete Main
Default : Yes
Forced : No
Duration_Source : General_Duration

Text
ID : 3
Format : PGS
Muxing mode : zlib
Codec ID : S_HDMV/PGS
Codec ID/Info : Picture based subtitle format used on BDs/HD-DVDs
Language : English
Default : Yes
Forced : No

Menu
00:00:00.000 : en:Chapter 01
00:11:23.140 : en:Chapter 02
00:19:36.675 : en:Chapter 03
00:31:40.940 : en:Chapter 04
00:40:18.707 : en:Chapter 05
00:49:24.252 : en:Chapter 06
01:04:45.715 : en:Chapter 07
01:10:41.654 : en:Chapter 08
01:20:59.145 : en:Chapter 09





General
Unique ID : 212945684543870838680948277214803708487 (0xA033D8D78E12E0C3B515FFD3E858CA47)
Complete name : F:\Marty.1955.Eureka.7p\Marty.1955.Eureka.7p.mkv
Format : Matroska
Format version : Version 4
File size : 1.73 GiB
Duration : 1 h 29 min
Overall bit rate : 2 766 kb/s
Movie name : Release RSU75
Encoded date : UTC 2020-09-20 05:35:21
Writing application : mkvmerge v6.6.0 ('The Edge Of The In Between') built on Dec 1 2013 17:55:00
Writing library : libebml v1.3.0 + libmatroska v1.4.1

Video
ID : 1
Format : AVC
Format/Info : Advanced Video Codec
Format profile : High@L4.1
Format settings : CABAC / 4 Ref Frames
Format settings, CABAC : Yes
Format settings, Reference fra : 4 frames
Codec ID : V_MPEG4/ISO/AVC
Duration : 1 h 29 min
Bit rate : 2 500 kb/s
Width : 960 pixels
Height : 720 pixels
Display aspect ratio : 4:3
Frame rate mode : Constant
Frame rate : 23.976 (23976/1000) FPS
Color space : YUV
Chroma subsampling : 4:2:0
Bit depth : 8 bits
Scan type : Progressive
Bits/(Pixel*Frame) : 0.151
Stream size : 1.54 GiB (89%)
Writing library : x264 core 148 r2643 5c65704
Encoding settings : cabac=1 / ref=4 / deblock=1:0:0 / analyse=0x3:0x113 / me=umh / subme=8 / psy=1 / psy_rd=1.00:0.00 / mixed_ref=1 / me_range=24 / chroma_me=1 / trellis=1 / 8x8dct=1 / cqm=0 / deadzone=21,11 / fast_pskip=1 / chroma_qp_offset=-2 / threads=3 / lookahead_threads=1 / sliced_threads=0 / nr=0 / decimate=1 / interlaced=0 / bluray_compat=0 / constrained_intra=0 / bframes=3 / b_pyramid=0 / b_adapt=2 / b_bias=0 / direct=3 / weightb=1 / open_gop=0 / weightp=2 / keyint=250 / keyint_min=25 / scenecut=40 / intra_refresh=0 / rc_lookahead=40 / rc=abr / mbtree=1 / bitrate=2500 / ratetol=1.0 / qcomp=0.60 / qpmin=10 / qpmax=51 / qpstep=4 / ip_ratio=1.41 / aq=1:1.00
Language : English
Default : Yes
Forced : No
Duration_Source : General_Duration

Audio
ID : 2
Format : AC-3
Format/Info : Audio Coding 3
Commercial name : Dolby Digital
Codec ID : A_AC3
Duration : 1 h 29 min
Bit rate mode : Constant
Bit rate : 256 kb/s
Channel(s) : 2 channels
Channel layout : L R
Sampling rate : 44.1 kHz
Frame rate : 28.711 FPS (1536 SPF)
Compression mode : Lossy
Stream size : 164 MiB (9%)
Title : Stereo
Language : English
Service kind : Complete Main
Default : Yes
Forced : No
Duration_Source : General_Duration

Text
ID : 3
Format : PGS
Muxing mode : zlib
Codec ID : S_HDMV/PGS
Codec ID/Info : Picture based subtitle format used on BDs/HD-DVDs
Language : English
Default : Yes
Forced : No

Menu
00:00:00.000 : en:Chapter 01
00:11:23.140 : en:Chapter 02
00:19:36.675 : en:Chapter 03
00:31:40.940 : en:Chapter 04
00:40:18.707 : en:Chapter 05
00:49:24.252 : en:Chapter 06
01:04:45.715 : en:Chapter 07
01:10:41.654 : en:Chapter 08
01:20:59.145 : en:Chapter 09




Screenshots 1080p (click to enlarge to original size):

Marty (1955) [Eureka!]

Marty (1955) [Eureka!]

Marty (1955) [Eureka!]



Screenshots 720p (click to enlarge to original size):

Marty (1955) [Eureka!]






If you like this release please visit my blog
In it you will find Eureka! and other releases