Marriage Italian Style / Matrimonio all'italiana (1964)

Marriage Italian Style / Matrimonio all'italiana (1964)

Marriage Italian Style / Matrimonio all'italiana (1964)
BDRip 1080p | MKV | HEVC, 1920x1020, ~ 3.8 Mbps | 1hr 41mn | 3.18 GB
Italian (Italiano): AC3, 2 ch, 256 kbps; English: AC3, 2 ch, 256 kbps
BDRip 720p | MKV | HEVC, 1280x680, ~ 2.8 Mbps | 1hr 41mn | 2.38 GB
Italian (Italiano): AC3, 2 ch, 256 kbps; English: AC3, 2 ch, 256 kbps
Subtitles: English
Genre: Comedy, Drama, Romance
IMDB Rating: 7.5/10 (7.283 votes)


Director: Vittorio De Sica
Writer: Eduardo De Filippo (play), Renato Castellani (screenplay)
Stars: Sophia Loren, Marcello Mastroianni, Aldo Puglisi

Film Distributor: Cult Films

Domenico, a successfull businessman, with an eye for the girls, begins an affair with Filumena when she is 17 years old. She becomes a prostitute, but also becomes the mistress of Domenico. He eventually sets her up in an apartment, and she works for him in his various businesses. She secretly bears three children, who are raised by nannys. Domenico starts planning to marry a young employee. Filumena tricks him into marriage by pretending to be dying. Domenico annuls the marriage. Filumena then tells him of the three children. She says that one of the children belongs to Domenico, but will not say which one is his. You start to believe that all of the children could be his, and Domenico then marries Filumena again, this time willingly.

Extras:
- None




General
Unique ID : 192378953429613641369954770955293870610 (0x90BAD6B5913A3233B23C7D6652EACA12)
Complete name : F:\MarriageItalianStyle.1964.HEVC.1p\MarriageItalianStyle.1964.HEVC.1p.mkv
Format : Matroska
Format version : Version 4 / Version 2
File size : 3.18 GiB
Duration : 1 h 41 min
Overall bit rate : 4 474 kb/s
Movie name : Release RSU75
Encoded date : UTC 2019-10-30 19:46:02
Writing application : mkvmerge v6.6.0 ('The Edge Of The In Between') built on Dec 1 2013 17:55:00
Writing library : libebml v1.3.0 + libmatroska v1.4.1

Video
ID : 1
Format : HEVC
Format/Info : High Efficiency Video Coding
Format profile : Main@L4@Main
Codec ID : V_MPEGH/ISO/HEVC
Duration : 1 h 41 min
Bit rate : 3 873 kb/s
Width : 1 920 pixels
Height : 1 020 pixels
Display aspect ratio : 1.882
Frame rate mode : Constant
Frame rate : 23.976 (23976/1000) FPS
Color space : YUV
Chroma subsampling : 4:2:0
Bit depth : 8 bits
Bits/(Pixel*Frame) : 0.082
Stream size : 2.75 GiB (87%)
Writing library : x265 1.9+5-20f14d78dbad:[Windows][GCC 5.2.0][32 bit] 8bit
Encoding settings : wpp / ctu=64 / min-cu-size=8 / max-tu-size=32 / tu-intra-depth=1 / tu-inter-depth=1 / me=1 / subme=2 / merange=57 / no-rect / no-amp / max-merge=2 / temporal-mvp / no-early-skip / rdpenalty=0 / no-tskip / no-tskip-fast / strong-intra-smoothing / no-lossless / no-cu-lossless / no-constrained-intra / no-fast-intra / open-gop / no-temporal-layers / interlace=0 / keyint=250 / min-keyint=23 / scenecut=40 / rc-lookahead=20 / lookahead-slices=6 / bframes=4 / bframe-bias=0 / b-adapt=2 / ref=3 / limit-refs=3 / no-limit-modes / weightp / no-weightb / aq-mode=1 / qg-size=32 / aq-strength=1.00 / cbqpoffs=0 / crqpoffs=0 / rd=3 / psy-rd=2.00 / rdoq-level=0 / psy-rdoq=0.00 / signhide / deblock / sao / no-sao-non-deblock / b-pyramid / cutree / no-intra-refresh / rc=abr / bitrate=4000 / qcomp=0.60 / qpmin=0 / qpmax=51 / qpstep=4 / ipratio=1.40 / pbratio=1.30
Language : English
Default : Yes
Forced : No

Audio #1
ID : 2
Format : AC-3
Format/Info : Audio Coding 3
Commercial name : Dolby Digital
Codec ID : A_AC3
Duration : 1 h 41 min
Bit rate mode : Constant
Bit rate : 256 kb/s
Channel(s) : 2 channels
Channel layout : L R
Sampling rate : 44.1 kHz
Frame rate : 28.711 FPS (1536 SPF)
Bit depth : 16 bits
Compression mode : Lossy
Stream size : 186 MiB (6%)
Language : Italian
Service kind : Complete Main
Default : Yes
Forced : No

Audio #2
ID : 3
Format : AC-3
Format/Info : Audio Coding 3
Commercial name : Dolby Digital
Codec ID : A_AC3
Duration : 1 h 41 min
Bit rate mode : Constant
Bit rate : 256 kb/s
Channel(s) : 2 channels
Channel layout : L R
Sampling rate : 44.1 kHz
Frame rate : 28.711 FPS (1536 SPF)
Bit depth : 16 bits
Compression mode : Lossy
Stream size : 186 MiB (6%)
Language : English
Service kind : Complete Main
Default : No
Forced : No

Text #1
ID : 4
Format : PGS
Muxing mode : zlib
Codec ID : S_HDMV/PGS
Codec ID/Info : Picture based subtitle format used on BDs/HD-DVDs
Language : English
Default : Yes
Forced : No

Text #2
ID : 5
Format : PGS
Muxing mode : zlib
Codec ID : S_HDMV/PGS
Codec ID/Info : Picture based subtitle format used on BDs/HD-DVDs
Language : English
Default : No
Forced : No

Menu
00:00:00.000 : en:Chapter 01
00:03:13.526 : en:Chapter 02
00:08:52.532 : en:Chapter 03
00:15:43.776 : en:Chapter 04
00:25:21.853 : en:Chapter 05
00:34:26.355 : en:Chapter 06
00:42:22.248 : en:Chapter 07
00:50:02.040 : en:Chapter 08
01:03:01.819 : en:Chapter 09
01:09:19.446 : en:Chapter 10
01:17:35.734 : en:Chapter 11
01:22:10.467 : en:Chapter 12
01:28:19.377 : en:Chapter 13
01:34:10.728 : en:Chapter 14
01:39:45.938 : en:Chapter 15





General
Unique ID : 207545604234337607228309695568676941831 (0x9C23D453B1EFA2E4A31CC20C8AF07007)
Complete name : F:\MarriageItalianStyle.1964.HEVC.7p\MarriageItalianStyle.1964.HEVC.7p.mkv
Format : Matroska
Format version : Version 4 / Version 2
File size : 2.38 GiB
Duration : 1 h 41 min
Overall bit rate : 3 340 kb/s
Movie name : Release RSU75
Encoded date : UTC 2019-10-30 11:01:05
Writing application : mkvmerge v6.6.0 ('The Edge Of The In Between') built on Dec 1 2013 17:55:00
Writing library : libebml v1.3.0 + libmatroska v1.4.1

Video
ID : 1
Format : HEVC
Format/Info : High Efficiency Video Coding
Format profile : Main@L3.1@Main
Codec ID : V_MPEGH/ISO/HEVC
Duration : 1 h 41 min
Bit rate : 2 762 kb/s
Width : 1 280 pixels
Height : 680 pixels
Display aspect ratio : 1.882
Frame rate mode : Constant
Frame rate : 23.976 (23976/1000) FPS
Color space : YUV
Chroma subsampling : 4:2:0
Bit depth : 8 bits
Bits/(Pixel*Frame) : 0.132
Stream size : 1.96 GiB (83%)
Writing library : x265 1.9+5-20f14d78dbad:[Windows][GCC 5.2.0][32 bit] 8bit
Encoding settings : wpp / ctu=64 / min-cu-size=8 / max-tu-size=32 / tu-intra-depth=1 / tu-inter-depth=1 / me=1 / subme=2 / merange=57 / no-rect / no-amp / max-merge=2 / temporal-mvp / no-early-skip / rdpenalty=0 / no-tskip / no-tskip-fast / strong-intra-smoothing / no-lossless / no-cu-lossless / no-constrained-intra / no-fast-intra / open-gop / no-temporal-layers / interlace=0 / keyint=250 / min-keyint=23 / scenecut=40 / rc-lookahead=20 / lookahead-slices=0 / bframes=4 / bframe-bias=0 / b-adapt=2 / ref=3 / limit-refs=3 / no-limit-modes / weightp / no-weightb / aq-mode=1 / qg-size=32 / aq-strength=1.00 / cbqpoffs=0 / crqpoffs=0 / rd=3 / psy-rd=2.00 / rdoq-level=0 / psy-rdoq=0.00 / signhide / deblock / sao / no-sao-non-deblock / b-pyramid / cutree / no-intra-refresh / rc=abr / bitrate=2850 / qcomp=0.60 / qpmin=0 / qpmax=51 / qpstep=4 / ipratio=1.40 / pbratio=1.30
Language : English
Default : Yes
Forced : No

Audio #1
ID : 2
Format : AC-3
Format/Info : Audio Coding 3
Commercial name : Dolby Digital
Codec ID : A_AC3
Duration : 1 h 41 min
Bit rate mode : Constant
Bit rate : 256 kb/s
Channel(s) : 2 channels
Channel layout : L R
Sampling rate : 44.1 kHz
Frame rate : 28.711 FPS (1536 SPF)
Bit depth : 16 bits
Compression mode : Lossy
Stream size : 186 MiB (8%)
Language : Italian
Service kind : Complete Main
Default : Yes
Forced : No

Audio #2
ID : 3
Format : AC-3
Format/Info : Audio Coding 3
Commercial name : Dolby Digital
Codec ID : A_AC3
Duration : 1 h 41 min
Bit rate mode : Constant
Bit rate : 256 kb/s
Channel(s) : 2 channels
Channel layout : L R
Sampling rate : 44.1 kHz
Frame rate : 28.711 FPS (1536 SPF)
Bit depth : 16 bits
Compression mode : Lossy
Stream size : 186 MiB (8%)
Language : English
Service kind : Complete Main
Default : No
Forced : No

Text #1
ID : 4
Format : PGS
Muxing mode : zlib
Codec ID : S_HDMV/PGS
Codec ID/Info : Picture based subtitle format used on BDs/HD-DVDs
Language : English
Default : Yes
Forced : No

Text #2
ID : 5
Format : PGS
Muxing mode : zlib
Codec ID : S_HDMV/PGS
Codec ID/Info : Picture based subtitle format used on BDs/HD-DVDs
Language : English
Default : No
Forced : No

Menu
00:00:00.000 : en:Chapter 01
00:03:13.526 : en:Chapter 02
00:08:52.532 : en:Chapter 03
00:15:43.776 : en:Chapter 04
00:25:21.853 : en:Chapter 05
00:34:26.355 : en:Chapter 06
00:42:22.248 : en:Chapter 07
00:50:02.040 : en:Chapter 08
01:03:01.819 : en:Chapter 09
01:09:19.446 : en:Chapter 10
01:17:35.734 : en:Chapter 11
01:22:10.467 : en:Chapter 12
01:28:19.377 : en:Chapter 13
01:34:10.728 : en:Chapter 14
01:39:45.938 : en:Chapter 15




Screenshots 1080p (click to enlarge to original size):

Marriage Italian Style / Matrimonio all'italiana (1964)

Marriage Italian Style / Matrimonio all'italiana (1964)

Marriage Italian Style / Matrimonio all'italiana (1964)



Screenshots 720p (click to enlarge to original size):

Marriage Italian Style / Matrimonio all'italiana (1964)




–––––––––––––––––––––––––––––––––––––––-
>>> "Romance" <<< OR >>> "HEVC" <<< OR >>> "Italian (Italiano)" <<<
–––––––––––––––––––––––––––––––––––––––-
>>> Visit Blog RSU75 Here <<<
–––––––––––––––––––––––––––––––––––––––-