Charles Sheeler And Paul Strand - Manhatta (1921)

Charles Sheeler And Paul Strand - Manhatta (1921)

Charles Sheeler And Paul Strand - Manhatta (1921)
HDTV | 1396x1072 | .MKV/AVC @ 11.1 Mb/s | 11 min 48 s | 953 MiB
Audio #1: English AAC 118 kbps, 2 channels; Audio #2: English AAC 104 kbps, 2 channels | Subs: None
Genre: Documentary

This groundbreaking silent documentary captures the beauty and majesty of the New York City in its streets, skyscrapers, bridges, rail yards and harbors.

General
Unique ID : 287816573134426531686503583291140221242 (0xD88774A6BA183A1B5390489DBD14293A)
Complete name : Manhatta.1080p.mkv
Format : Matroska
Format version : Version 4 / Version 2
File size : 953 MiB
Duration : 11 min 48 s
Overall bit rate : 11.3 Mb/s

Video
ID : 3
Format : AVC
Format/Info : Advanced Video Codec
Format profile : High@L4.1
Format settings, CABAC : Yes
Format settings, ReFrames : 5 frames
Codec ID : V_MPEG4/ISO/AVC
Duration : 11 min 45 s
Bit rate : 11.1 Mb/s
Width : 1 396 pixels
Height : 1 072 pixels
Display aspect ratio : 4:3
Frame rate mode : Constant
Frame rate : 23.976 (24000/1001) FPS
Color space : YUV
Chroma subsampling : 4:2:0
Bit depth : 8 bits
Scan type : Progressive
Bits/(Pixel*Frame) : 0.310
Stream size : 934 MiB (98%)
Writing library : x264 core 157 r2935 545de2f
Encoding settings : cabac=1 / ref=5 / deblock=1:-3:-3 / analyse=0x3:0x133 / me=umh / subme=10 / psy=1 / psy_rd=1.00:0.00 / mixed_ref=1 / me_range=32 / chroma_me=1 / trellis=2 / 8x8dct=1 / cqm=0 / deadzone=21,11 / fast_pskip=0 / chroma_qp_offset=-2 / threads=18 / lookahead_threads=4 / sliced_threads=0 / nr=0 / decimate=0 / interlaced=0 / bluray_compat=0 / constrained_intra=0 / bframes=16 / b_pyramid=2 / b_adapt=2 / b_bias=0 / direct=3 / weightb=1 / open_gop=0 / weightp=2 / keyint=240 / keyint_min=24 / scenecut=40 / intra_refresh=0 / rc_lookahead=60 / rc=crf / mbtree=0 / crf=20.2 / qcomp=0.70 / qpmin=0 / qpmax=69 / qpstep=4 / vbv_maxrate=62500 / vbv_bufsize=78125 / crf_max=0.0 / nal_hrd=none / filler=0 / ip_ratio=1.40 / pb_ratio=1.30 / aq=1:0.60
Default : Yes
Forced : No
Color range : Limited
Color primaries : BT.709
Transfer characteristics : BT.709
Matrix coefficients : BT.709

Audio #1
ID : 1
Format : AAC
Format/Info : Advanced Audio Codec
Format profile : LC
Codec ID : A_AAC
Duration : 11 min 45 s
Bit rate : 118 kb/s
Channel(s) : 2 channels
Channel positions : Front: L R
Sampling rate : 48.0 kHz
Frame rate : 46.875 FPS (1024 spf)
Compression mode : Lossy
Stream size : 9.94 MiB (1%)
Title : Donald Sosin score
Language : zxx
Default : Yes
Forced : No

Audio #2
ID : 2
Format : AAC
Format/Info : Advanced Audio Codec
Format profile : LC
Codec ID : A_AAC
Duration : 11 min 48 s
Bit rate : 104 kb/s
Channel(s) : 2 channels
Channel positions : Front: L R
Sampling rate : 48.0 kHz
Frame rate : 46.875 FPS (1024 spf)
Compression mode : Lossy
Stream size : 8.81 MiB (1%)
Title : Henry Wolfe and Phil Carluzzo score
Language : zxx
Default : No
Forced : No


Screenshots:

Charles Sheeler And Paul Strand - Manhatta (1921)

Charles Sheeler And Paul Strand - Manhatta (1921)

Charles Sheeler And Paul Strand - Manhatta (1921)

Charles Sheeler And Paul Strand - Manhatta (1921)